<?xml version="1.0" standalone="no"?>
<!DOCTYPE svg PUBLIC "-//W3C//DTD SVG 1.1//EN" "http://www.w3.org/Graphics/SVG/1.1/DTD/svg11.dtd" >
<svg xmlns="http://www.w3.org/2000/svg">
<metadata>Generated by IcoMoon</metadata>
<defs>
<font id="socicon" horiz-adv-x="1024">
<font-face units-per-em="1024" ascent="791.7732160312805" descent="-232.22678396871942" />
<missing-glyph horiz-adv-x="1024" />
<glyph unicode="&#x20;" horiz-adv-x="186.1818181818182" d="" />
<glyph unicode="&#xe000;" glyph-name="modelmayhem" d="M1022.999 216.43c-2.002 42.041-4.004 82.080-16.016 122.119-10.010 38.037-28.027 74.072-50.049 108.106-20.020 30.029-46.045 60.059-80.078 78.076-32.031 16.016-66.065 20.020-102.1 16.016-84.082-10.010-148.145-68.066-202.197-132.129-28.027-32.031-54.053-68.066-80.078-104.102-6.006-12.012-14.014-22.022-20.020-34.033-6.006-8.008-10.010-20.020-18.018-26.025-14.014-14.014-22.022 34.033-24.023 42.041-24.023 88.086-46.045 180.176-86.084 264.258-16.016 34.033-34.033 68.066-60.059 94.092-28.027 28.027-62.061 30.029-102.1 30.029-18.018-4.004-34.033-4.004-50.049-20.020-16.016-14.014-32.031-28.027-46.045-42.041s-26.025-32.031-44.043-42.041c-14.014-8.008-32.031-6.006-38.037-22.022-10.010-18.018 2.002-38.037 2.002-58.057 0-22.022 4.004-68.066 4.004-68.066s0-48.047 0-72.070c0-12.012 0-24.023 0-36.035 0-10.010 0-30.029 0-30.029v-286.28c0 0-4.004-42.041 6.006-56.055 8.008-14.014 26.025-12.012 40.039-12.012 28.027-2.002 64.063-4.004 68.066 30.029 4.004 22.022 2.002 44.043 2.002 66.065 0 24.023 0 50.049 0 74.072 0 96.094-16.016 194.19 2.002 290.283 4.004 28.027 20.020 92.090 60.059 82.080 36.035-8.008 60.059-56.055 72.070-86.084 34.033-88.086 52.051-182.178 72.070-274.268 4.004-24.023 8.008-48.047 16.016-70.068 4.004-16.016 8.008-34.033 24.023-40.039 30.029-18.018 74.072 2.002 98.096 22.022 34.033 26.025 56.055 60.059 74.072 98.096 22.022 42.041 42.041 84.082 62.061 128.125 18.018 36.035 30.029 76.074 64.063 102.1 28.027 20.020 68.066 34.033 102.1 30.029 92.090-6.006 114.111-130.127 116.113-202.197 2.002-48.047-4.004-96.094-6.006-144.141-2.002-24.023-2.002-48.047-2.002-72.070 0-10.010-2.002-24.023 4.004-34.033 12.012-20.020 52.051-12.012 70.068-10.010 26.025 2.002 36.035 14.014 46.045 40.039 14.014 42.041 20.020 84.082 22.022 130.127 2.002 42.041 4.004 84.082 0 126.123z" />
<glyph unicode="&#xe001;" glyph-name="mixcloud" d="M936.915-5.787c-6.006 0-12.012 2.002-18.018 6.006-16.016 10.010-20.020 32.031-10.010 48.047 32.031 46.045 48.047 102.1 48.047 158.154 0 58.057-16.016 112.109-48.047 158.154-10.010 16.016-6.006 38.037 10.010 48.047 14.014 10.010 36.035 6.006 46.045-10.010 40.039-58.057 60.059-126.123 60.059-196.192s-20.020-138.135-60.059-196.192c-6.006-10.010-16.016-16.016-28.027-16.016zM838.819 50.268c-6.006 0-12.012 2.002-18.018 6.006-16.016 10.010-20.020 32.031-10.010 46.045 22.022 32.031 32.031 68.066 32.031 104.102 0 38.037-10.010 72.070-32.031 104.102-10.010 16.016-6.006 36.035 10.010 46.045 16.016 12.012 36.035 8.008 46.045-8.008 30.029-42.041 44.043-92.090 44.043-142.139s-14.014-100.098-44.043-142.139c-6.006-10.010-16.016-14.014-28.027-14.014zM680.665 354.565c-14.014 136.133-130.127 244.239-270.264 244.239-116.113 0-218.213-74.072-256.25-184.18-86.084-12.012-154.151-88.086-154.151-178.174 0-100.098 82.080-182.178 182.178-182.178h464.454c84.082 0 152.149 68.066 152.149 152.149 0 72.070-50.049 134.131-118.115 148.145zM646.631 122.338h-464.454c-62.061 0-114.111 52.051-114.111 114.111s52.051 112.109 114.111 112.109c30.029 0 58.057-10.010 80.078-32.031 14.014-14.014 34.033-14.014 48.047 0 14.014 12.012 14.014 34.033 0 48.047-24.023 24.023-52.051 40.039-84.082 48.047 32.031 70.068 104.102 118.115 184.18 118.115 112.109 0 202.197-90.088 202.197-202.197 0-22.022-2.002-44.043-10.010-64.063-6.006-18.018 4.004-36.035 22.022-42.041 4.004-2.002 8.008-2.002 10.010-2.002 16.016 0 28.027 8.008 34.033 24.023 4.004 12.012 8.008 26.025 10.010 40.039 30.029-12.012 52.051-42.041 52.051-78.076 0-46.045-36.035-84.082-84.082-84.082z" />
<glyph unicode="&#xe002;" glyph-name="drupal" d="M734.717 618.823c0 0 0 0-2.002 0-44.043 28.027-88.086 42.041-132.129 68.066-6.006 2.002-10.010 6.006-16.016 10.010-30.029 20.020-72.070 70.068-108.106 112.109 0 0 0 0 0 0s0 0 0 0c-2.002-22.022-6.006-38.037-10.010-52.051-10.010-30.029-22.022-48.047-38.037-60.059 0-2.002-2.002-2.002-4.004-4.004-50.049-40.039-82.080-52.051-126.123-74.072-2.002-2.002-8.008-6.006-14.014-10.010-26.025-16.016-72.070-48.047-116.113-98.096-54.053-64.063-104.102-156.152-104.102-284.278 0-82.080 22.022-156.152 60.059-220.215 40.039-68.066 98.096-124.121 168.164-162.158 0-2.002 0-2.002 0-2.002 2.002 0 4.004 0 4.004-2.002 2.002 0 2.002 0 4.004-2.002 0 0 2.002 0 4.004-2.002 0 0 2.002 0 4.004-2.002 0 0 0 0 2.002 0 0-2.002 2.002-2.002 4.004-4.004 0 0 0 0 0 0 62.061-30.029 132.129-46.045 202.197-46.045 238.233 0 444.434 172.168 444.434 434.424s-194.19 380.371-226.221 400.391zM740.723-123.902c-4.004-4.004-50.049-36.035-102.1-40.039-54.053-6.006-126.123-8.008-170.166 30.029-6.006 8.008-4.004 18.018 0 22.022 6.006 4.004 10.010 6.006 16.016 6.006s4.004 0 8.008-2.002c18.018-16.016 48.047-28.027 112.109-28.027 62.061 0 108.106 18.018 126.123 32.031 10.010 8.008 14.014 2.002 14.014-2.002 2.002-4.004 4.004-10.010-4.004-18.018zM568.555-33.814c10.010 10.010 28.027 26.025 46.045 34.033 16.016 6.006 26.025 4.004 40.039 4.004 16.016 0 34.033 0 46.045-8.008s18.018-26.025 22.022-36.035c4.004-10.010 0-16.016-8.008-20.020-6.006-4.004-8.008-2.002-14.014 12.012-8.008 12.012-14.014 26.025-48.047 26.025s-46.045-12.012-62.061-26.025c-16.016-14.014-22.022-20.020-28.027-12.012s-4.004 16.016 6.006 26.025zM830.811-41.822c-36.035 4.004-108.106 114.111-152.149 116.113-58.057 2.002-182.178-120.117-280.274-120.117-58.057 0-76.074 10.010-96.094 22.022-30.029 22.022-44.043 52.051-44.043 96.094 2.002 76.074 74.072 148.145 164.16 150.147 116.113 0 196.192-114.111 254.248-114.111 48.047 2.002 144.141 98.096 190.186 98.096 50.049 0 62.061-52.051 62.061-82.080s-8.008-86.084-32.031-120.117c-24.023-34.033-40.039-48.047-66.065-46.045z" />
<glyph unicode="&#xe003;" glyph-name="swarm" d="M382.373 170.385c-42.041-64.063-72.070-128.125-94.092-176.172 0-2.002-16.016-40.039-20.020-52.051-6.006-14.014 2.002-30.029 16.016-36.035 12.012-4.004 50.049-18.018 52.051-20.020 50.049-16.016 116.113-36.035 190.186-48.047-42.041 42.041-78.076 94.092-104.102 150.147s-38.037 118.115-40.039 182.178zM528.516 434.643c0 0 0 0 0 0-2.002 4.004-6.006 14.014-8.008 16.016-144.141 296.289-464.454 284.278-514.502 152.149-40.039-100.098 130.127-342.334 522.51-168.164zM592.579 462.671c0 0 0 0 0 0 222.217 98.096 190.186 268.262 134.131 290.283-78.076 30.029-218.213-84.082-138.135-282.276 2.002-2.002 4.004-6.006 4.004-8.008zM998.976 246.459c-32.031 74.072-94.092 128.125-166.162 154.151-6.006 2.002-14.014 4.004-22.022 4.004-36.035 0-72.070-30.029-76.074-70.068-4.004-64.063 8.008-128.125 36.035-192.188 28.027-62.061 66.065-114.111 118.115-154.151 12.012-10.010 28.027-14.014 44.043-14.014 30.029 0 58.057 16.016 70.068 42.041 30.029 72.070 30.029 154.151-4.004 230.225zM686.671 104.321c-36.035 80.078-50.049 160.156-44.043 238.233 2.002 22.022 10.010 44.043 20.020 64.063-2.002-2.002-6.006-2.002-6.006-2.002-32.031-8.008-64.063-22.022-92.090-40.039-40.039-28.027-76.074-68.066-92.090-114.111-4.004-12.012-8.008-26.025-8.008-40.039-6.006-62.061 4.004-128.125 32.031-190.186 28.027-60.059 66.065-110.108 114.111-148.145 30.029-22.022 84.082-38.037 126.123-38.037 40.039 0 80.078 12.012 116.113 30.029 12.012 6.006 36.035 22.022 38.037 24.023-22.022 4.004-42.041 14.014-58.057 28.027-62.061 46.045-112.109 110.108-146.143 188.184z" />
<glyph unicode="&#xe004;" glyph-name="istock" d="M60.059 488.696h184.18v-686.671h-184.18zM422.413 66.283c56.055-64.063 142.139-108.106 234.229-108.106 86.084 0 142.139 52.051 142.139 124.121 0 128.125-184.18 142.139-316.309 222.217-80.078 44.043-140.137 112.109-140.137 226.221 0 176.172 162.158 278.272 328.321 278.272 102.1 0 192.188-22.022 286.28-94.092l-98.096-144.141c-42.041 38.037-106.104 64.063-170.166 64.063-70.068 0-154.151-30.029-154.151-108.106 0-158.154 456.446-110.108 456.446-444.434 0-178.174-158.154-298.291-334.326-298.291-132.129 0-256.25 56.055-358.35 146.143zM34.033 688.891c0 68.066 52.051 120.117 120.117 120.117s120.117-52.051 120.117-120.117c0-68.066-52.051-120.117-120.117-120.117s-120.117 52.051-120.117 120.117z" />
<glyph unicode="&#xe005;" glyph-name="yammer" d="M498.487 692.895c-26.025 8.008-52.051-4.004-62.061-30.029 0 0 0-4.004-2.002-4.004 0-2.002 0-4.004 0-4.004v0c-16.016-40.039-158.154-420.411-158.154-420.411h-4.004l-168.164 430.42c0 0 0 0 0 0l-2.002 6.006c-12.012 26.025-40.039 38.037-66.065 28.027s-40.039-40.039-32.031-66.065c20.020-52.051 216.211-526.514 216.211-526.514l-14.014-28.027c-20.020-58.057-44.043-96.094-110.108-96.094-6.006 0-26.025 0-28.027 0-22.022 2.002-40.039-12.012-46.045-32.031-6.006-24.023 8.008-48.047 32.031-56.055 16.016-2.002 34.033-4.004 50.049-4.004 118.115 0 158.154 68.066 196.192 168.164 0 0 216.211 538.526 226.221 560.547 0 4.004 2.002 8.008 4.004 10.010v0c0 0 0 2.002 0 2.002 8.008 26.025-6.006 54.053-32.031 62.061zM888.868 66.283c-84.082 46.045-228.223 114.111-280.274 114.111-8.008 0-12.012-2.002-18.018-6.006-4.004-2.002-6.006-6.006-6.006-12.012 2.002-40.039 224.219-188.184 242.237-198.194l8.008-4.004c6.006-2.002 12.012-4.004 18.018-4.004 20.020 0 38.037 12.012 50.049 28.027 16.016 26.025 10.010 60.059-14.014 82.080zM590.577 418.628c6.006-4.004 10.010-6.006 18.018-6.006 52.051 0 196.192 68.066 280.274 116.113 24.023 20.020 30.029 54.053 14.014 80.078-12.012 16.016-30.029 28.027-50.049 28.027-6.006 0-12.012-2.002-20.020-4.004l-6.006-4.004c-18.018-10.010-240.235-158.154-242.237-198.194 0-6.006 2.002-10.010 6.006-12.012zM976.954 358.569h-6.006c-22.022 0-286.28-24.023-308.301-58.057-2.002-4.004-4.004-12.012 0-16.016 22.022-46.045 308.301-50.049 314.307-46.045 30.029 4.004 52.051 32.031 50.049 64.063-2.002 26.025-22.022 50.049-50.049 56.055z" />
<glyph unicode="&#xe006;" glyph-name="ello" d="M512.5 809.009c-282.276 0-512.5-230.225-512.5-512.5s230.225-512.5 512.5-512.5c282.276 0 512.5 230.225 512.5 512.5s-230.225 512.5-512.5 512.5zM810.792 220.434c-36.035-136.133-158.154-232.227-298.291-232.227s-262.256 96.094-298.291 232.227c-4.004 14.014 6.006 30.029 22.022 34.033s32.031-4.004 36.035-20.020c28.027-110.108 126.123-186.182 240.235-186.182s212.207 76.074 240.235 186.182c4.004 16.016 20.020 24.023 36.035 20.020s26.025-20.020 22.022-34.033z" />
<glyph unicode="&#xe007;" glyph-name="stackoverflow" d="M696.68-133.912h-510.499l2.002 344.336h-76.074l-2.002-426.416h668.653v430.42h-82.080zM236.231 10.229h398.389v-82.080h-398.389zM246.24 162.377l402.393-38.037-8.008-88.086-402.393 38.037zM282.276 336.547l390.381-110.108-24.023-84.082-388.379 110.108zM378.37 532.739l344.336-208.203-44.043-76.074-346.338 210.205zM738.721 340.551l-236.231 328.321 72.070 50.049 234.229-328.321zM760.743 794.995l86.084 14.014 68.066-398.389-88.086-14.014z" />
<glyph unicode="&#xe008;" glyph-name="persona" d="M688.673 688.891h-650.635c-22.022 0-38.037-16.016-38.037-36.035v-712.696c0-20.020 16.016-36.035 38.037-36.035h650.635l336.328 392.383zM414.405 60.278c-158.154 0-210.205 6.006-210.205 6.006s8.008 126.123 66.065 148.145c56.055 22.022 70.068 20.020 90.088 32.031 0 0 2.002 0 2.002 0v34.033c-20.020 16.016-34.033 42.041-44.043 70.068-10.010 12.012-16.016 24.023-16.016 38.037 0 10.010 4.004 20.020 8.008 28.027 4.004 70.068 48.047 116.113 104.102 116.113 54.053 0 100.098-46.045 102.1-116.113 6.006-8.008 8.008-18.018 8.008-28.027 0-14.014-6.006-26.025-16.016-38.037-8.008-28.027-24.023-54.053-42.041-70.068v-34.033c0 0 0 0 0 0 20.020-12.012 34.033-10.010 92.090-32.031s66.065-148.145 66.065-148.145c0 0-54.053-6.006-210.205-6.006z" />
<glyph unicode="&#xe009;" glyph-name="triplej" d="M366.358 722.925c26.025-60.059 52.051-120.117 80.078-180.176 2.002-6.006 8.008-30.029 18.018-26.025 20.020 8.008 16.016 6.006 10.010 26.025-10.010 30.029-22.022 58.057-30.029 86.084-16.016 44.043-36.035 88.086-50.049 132.129-4.004 12.012-18.018 58.057-38.037 46.045-32.031-18.018 0-60.059 10.010-84.082 4.004-8.008-4.004 10.010 0 0zM716.7 418.628c-22.022 0-32.031-34.033-14.014-46.045 6.006-4.004 12.012-6.006 14.014-6.006 10.010 0 26.025 16.016 26.025 28.027 0 6.006 10.010 20.020 36.035 48.047 20.020 20.020 60.059 62.061 90.088 92.090 28.027 30.029 70.068 74.072 92.090 98.096 52.051 54.053 52.051 54.053 46.045 66.065-2.002 6.006-10.010 12.012-16.016 12.012-2.002 2.002-2.002 2.002-4.004 2.002-8.008-2.002-18.018-12.012-54.053-54.053-10.010-12.012-26.025-30.029-34.033-40.039-8.008-8.008-26.025-28.027-38.037-44.043-14.014-14.014-34.033-38.037-44.043-50.049-36.035-40.039-56.055-64.063-74.072-86.084-12.012-14.014-20.020-20.020-26.025-20.020zM712.696 222.436c56.055 24.023 124.121 72.070 146.143 104.102 6.006 6.006 12.012 14.014 14.014 18.018 18.018 20.020 30.029 68.066 22.022 96.094-4.004 18.018-24.023 50.049-32.031 50.049-6.006 0-56.055-56.055-58.057-64.063-4.004-16.016 4.004-20.020 34.033-20.020s28.027-4.004-6.006-16.016c-44.043-16.016-50.049-30.029-34.033-64.063 4.004-10.010 8.008-18.018 6.006-18.018 0-2.002-10.010 0-20.020 4.004-24.023 6.006-34.033 8.008-48.047 2.002-12.012-6.006-30.029-40.039-30.029-54.053 0-6.006-2.002-10.010-4.004-12.012-6.006-2.002-12.012 14.014-12.012 28.027 0 4.004-6.006 16.016-14.014 24.023-14.014 16.016-14.014 16.016-40.039 16.016-14.014 0-32.031-2.002-42.041-4.004l-16.016-2.002 24.023 24.023c20.020 20.020 24.023 24.023 24.023 40.039 0 20.020-10.010 34.033-32.031 52.051l-12.012 12.012 16.016-4.004c56.055-10.010 82.080 6.006 90.088 58.057 0 10.010 4.004 18.018 4.004 18.018 2.002 0 8.008-10.010 12.012-20.020 12.012-26.025 20.020-32.031 36.035-20.020 12.012 8.008 46.045 46.045 48.047 54.053 4.004 10.010-46.045 16.016-102.1 16.016-44.043 0-92.090-4.004-120.117-10.010-60.059-16.016-74.072-20.020-72.070-28.027 2.002-4.004 6.006-14.014 10.010-22.022 8.008-26.025 14.014-38.037 18.018-38.037 6.006 0 22.022-22.022 22.022-28.027 0-4.004-4.004-12.012-10.010-18.018-12.012-12.012-28.027-14.014-42.041-2.002-6.006 8.008-8.008 12.012-6.006 24.023 2.002 16.016-2.002 26.025-22.022 70.068l-4.004 8.008-30.029-14.014c-88.086-44.043-144.141-98.096-162.158-160.156-4.004-8.008-4.004-18.018-4.004-18.018 2.002 0 34.033-2.002 72.070-4.004 62.061-2.002 74.072-2.002 80.078 2.002 12.012 10.010 20.020 12.012 34.033 6.006s16.016-14.014 14.014-30.029c-2.002-18.018-32.031-28.027-46.045-14.014-6.006 6.006-14.014 6.006-76.074 4.004-36.035 0-68.066-2.002-70.068-4.004-2.002-4.004 12.012-26.025 28.027-40.039 30.029-26.025 76.074-44.043 138.135-50.049 76.074-8.008 188.184 12.012 274.268 48.047zM950.929 140.356c-2.002 22.022-6.006 58.057-10.010 78.076-2.002 20.020-6.006 52.051-8.008 68.066-2.002 22.022-4.004 32.031-6.006 32.031s-4.004-4.004-6.006-14.014c-2.002-20.020-26.025-140.137-30.029-146.143 0-2.002-4.004-18.018-6.006-34.033-4.004-14.014-8.008-36.035-10.010-48.047-2.002-10.010-8.008-38.037-12.012-60.059-10.010-48.047-16.016-68.066-20.020-68.066-2.002 0-48.047 42.041-102.1 94.092l-96.094 96.094-8.008-14.014c-4.004-10.010-8.008-24.023-10.010-34.033 0-10.010-4.004-20.020-6.006-24.023-2.002-2.002-8.008-26.025-16.016-52.051-6.006-24.023-14.014-54.053-18.018-64.063-2.002-12.012-8.008-32.031-12.012-48.047-8.008-32.031-14.014-34.033-34.033-12.012-18.018 20.020-68.066 78.076-74.072 84.082-2.002 2.002-14.014 14.014-26.025 28.027s-26.025 30.029-30.029 34.033c-4.004 6.006-20.020 22.022-34.033 38.037s-28.027 32.031-30.029 34.033c-2.002 2.002-14.014 14.014-24.023 26.025-20.020 22.022-22.022 20.020-10.010-10.010 4.004-10.010 12.012-26.025 14.014-34.033 4.004-8.008 8.008-18.018 12.012-26.025 6.006-10.010 12.012-26.025 28.027-64.063 4.004-8.008 10.010-20.020 12.012-26.025 4.004-12.012 16.016-36.035 26.025-60.059 20.020-48.047 26.025-58.057 44.043-76.074 24.023-22.022 60.059-40.039 98.096-48.047 60.059-12.012 142.139-6.006 208.203 16.016 66.065 20.020 108.106 46.045 150.147 88.086 34.033 34.033 34.033 34.033 46.045 58.057 14.014 26.025 16.016 50.049 10.010 102.1-2.002 26.025-8.008 64.063-10.010 86.084zM230.225 300.512c-8.008 2.002-40.039 2.002-76.074 2.002-58.057 0-132.129-2.002-134.131-4.004-6.006-8.008-6.006-26.025 0-32.031 4.004-4.004 26.025-4.004 114.111-2.002 62.061 2.002 112.109 4.004 112.109 4.004 2.002 0 2.002 8.008 0 16.016-2.002 10.010-4.004 14.014-16.016 16.016z" />
<glyph unicode="&#xe00a;" glyph-name="houzz" d="M512.5-213.99l286.28 174.17v336.328l-286.28-172.168zM512.5 466.674v344.336l-296.289-174.17v-348.34l294.287 172.168 288.282-164.16v340.332zM508.497 122.338l-292.285 166.162v-338.33z" />
<glyph unicode="&#xe00b;" glyph-name="rss" d="M274.268-77.857c0-76.074-60.059-136.133-136.133-136.133s-136.133 60.059-136.133 136.133c0 74.072 60.059 136.133 136.133 136.133s136.133-62.061 136.133-136.133zM2.002 264.477c128.125 0 248.242-50.049 338.33-140.137s140.137-212.207 140.137-340.332h196.192c0 372.364-302.295 676.661-674.659 676.661zM2.002 612.817c454.444 0 824.805-372.364 824.805-828.809h196.192c0 564.551-458.448 1025.001-1020.997 1025.001z" />
<glyph unicode="&#xe00c;" glyph-name="paypal" d="M636.622 809.009h-370.362c-24.023 0-46.045-18.018-50.049-44.043l-148.145-944.923c-4.004-20.020 10.010-36.035 30.029-36.035h176.172c24.023 0 46.045 18.018 50.049 44.043l40.039 254.248c4.004 26.025 26.025 44.043 50.049 44.043h118.115c242.237 0 382.373 116.113 420.411 350.342 16.016 102.1 0 182.178-48.047 238.233-52.051 62.061-146.143 94.092-268.262 94.092zM678.663 462.671c-20.020-132.129-122.119-132.129-220.215-132.129h-54.053l38.037 248.242c2.002 14.014 16.016 26.025 30.029 26.025h26.025c66.065 0 130.127 0 162.158-38.037 20.020-24.023 26.025-56.055 18.018-104.102z" />
<glyph unicode="&#xe00d;" glyph-name="odnoklassniki" d="M512.5 290.502c144.141 0 260.254 116.113 260.254 258.252 0 144.141-116.113 260.254-260.254 260.254s-260.254-116.113-260.254-260.254c0-142.139 116.113-258.252 260.254-258.252zM512.5 676.88c70.068 0 128.125-56.055 128.125-128.125 0-70.068-58.057-126.123-128.125-126.123s-128.125 56.055-128.125 126.123c0 72.070 58.057 128.125 128.125 128.125zM810.792 258.471c-14.014 30.029-54.053 54.053-108.106 12.012-74.072-58.057-190.186-58.057-190.186-58.057s-116.113 0-190.186 58.057c-54.053 42.041-94.092 18.018-108.106-12.012-26.025-52.051 2.002-76.074 68.066-118.115 56.055-36.035 132.129-48.047 180.176-54.053l-40.039-42.041c-58.057-56.055-114.111-112.109-154.151-152.149-22.022-22.022-22.022-60.059 0-84.082l8.008-6.006c24.023-24.023 60.059-24.023 84.082 0l152.149 152.149c58.057-58.057 114.111-114.111 154.151-152.149 22.022-24.023 60.059-24.023 84.082 0l6.006 6.006c24.023 24.023 24.023 62.061 0 84.082l-194.19 194.19c50.049 6.006 126.123 18.018 180.176 54.053 66.065 42.041 94.092 66.065 68.066 118.115z" />
<glyph unicode="&#xe00e;" glyph-name="airbnb" d="M976.954 82.299c-6.006 12.012-10.010 24.023-16.016 36.035-8.008 18.018-16.016 36.035-24.023 52.051v2.002c-72.070 154.151-148.145 310.303-226.221 464.454l-4.004 6.006c-8.008 16.016-16.016 32.031-24.023 48.047-10.010 18.018-22.022 38.037-38.037 56.055-34.033 40.039-80.078 62.061-130.127 62.061-52.051 0-98.096-22.022-132.129-62.061-16.016-18.018-26.025-38.037-36.035-56.055-10.010-16.016-18.018-32.031-26.025-48.047l-4.004-6.006c-78.076-154.151-154.151-310.303-226.221-464.454v-2.002c-8.008-16.016-16.016-34.033-24.023-52.051-4.004-12.012-10.010-24.023-14.014-36.035-14.014-38.037-18.018-74.072-14.014-112.109 12.012-76.074 62.061-140.137 134.131-170.166 26.025-10.010 56.055-16.016 84.082-16.016 10.010 0 18.018 0 28.027 2.002 34.033 4.004 68.066 16.016 102.1 34.033 42.041 24.023 82.080 58.057 128.125 106.104 44.043-48.047 86.084-82.080 126.123-106.104 34.033-18.018 70.068-30.029 104.102-34.033 8.008-2.002 18.018-2.002 26.025-2.002 30.029 0 58.057 6.006 84.082 16.016 72.070 30.029 122.119 94.092 134.131 170.166 4.004 38.037 0 74.072-12.012 112.109zM514.502 28.246c-56.055 70.068-92.090 136.133-104.102 190.186-6.006 24.023-6.006 44.043-4.004 64.063 2.002 16.016 8.008 30.029 16.016 42.041 20.020 28.027 54.053 44.043 92.090 44.043 36.035 0 70.068-16.016 90.088-44.043 8.008-12.012 14.014-26.025 16.016-42.041 4.004-20.020 2.002-40.039-4.004-64.063-12.012-54.053-48.047-120.117-102.1-190.186zM922.901-19.801c-6.006-54.053-42.041-98.096-92.090-120.117-24.023-10.010-52.051-12.012-80.078-10.010-26.025 4.004-50.049 12.012-78.076 28.027-36.035 20.020-74.072 52.051-116.113 98.096 68.066 84.082 110.108 160.156 124.121 228.223 8.008 32.031 10.010 60.059 4.004 88.086-4.004 26.025-12.012 48.047-26.025 70.068-32.031 46.045-86.084 72.070-144.141 72.070-60.059 0-114.111-26.025-146.143-72.070-14.014-22.022-22.022-44.043-26.025-70.068-4.004-28.027-4.004-56.055 4.004-88.086 16.016-68.066 58.057-144.141 124.121-228.223-42.041-46.045-80.078-78.076-116.113-98.096-26.025-16.016-52.051-24.023-78.076-28.027-28.027-2.002-54.053 0-80.078 10.010-48.047 22.022-84.082 66.065-92.090 120.117-4.004 26.025-2.002 52.051 8.008 80.078 4.004 10.010 8.008 20.020 14.014 32.031 8.008 16.016 16.016 34.033 24.023 50.049v2.002c70.068 154.151 146.143 308.301 224.219 462.452l4.004 6.006c8.008 16.016 16.016 32.031 24.023 46.045 10.010 18.018 18.018 32.031 30.029 46.045 22.022 26.025 50.049 38.037 82.080 38.037s60.059-12.012 80.078-38.037c12.012-14.014 20.020-28.027 30.029-44.043 8.008-16.016 16.016-32.031 24.023-48.047l4.004-6.006c78.076-154.151 154.151-308.301 224.219-462.452v0c8.008-18.018 16.016-34.033 24.023-52.051 6.006-12.012 10.010-22.022 14.014-32.031 10.010-28.027 12.012-54.053 8.008-80.078z" />
<glyph unicode="&#xe00f;" glyph-name="periscope" d="M804.786 680.884c-78.076 82.080-180.176 128.125-286.28 128.125-230.225 0-416.407-192.188-416.407-428.418 0-152.149 114.111-320.313 164.16-386.377 74.072-98.096 184.18-210.205 252.246-210.205 82.080 0 226.221 188.184 240.235 210.205 50.049 66.065 164.16 236.231 164.16 386.377 0 112.109-42.041 220.215-118.115 300.293zM518.506-179.957c-86.084 0-380.371 334.326-380.371 560.547 0 214.209 168.164 392.383 380.371 392.383 200.196 0 368.36-178.174 368.36-392.383 0-226.221-294.287-560.547-368.36-560.547zM518.506 626.831c-20.020 0-40.039-2.002-60.059-6.006 32.031-14.014 54.053-46.045 54.053-82.080 0-50.049-40.039-88.086-90.088-88.086s-90.088 38.037-90.088 88.086c0 0 0 0 0 0-30.029-38.037-48.047-88.086-48.047-144.141 0-118.115 102.1-218.213 234.229-218.213 120.117 0 222.217 100.098 222.217 218.213 0 132.129-102.1 232.227-222.217 232.227z" />
<glyph unicode="&#xe010;" glyph-name="outlook" d="M640.626 590.796v-200.196l70.068-44.043c2.002 0 6.006 0 8.008 0l300.293 204.199c0 24.023-22.022 40.039-34.033 40.039zM640.626 316.528l64.063-44.043c8.008-6.006 20.020 0 20.020 0-12.012-6.006 294.287 196.192 294.287 196.192v-368.36c0-40.039-26.025-56.055-54.053-56.055h-324.317v272.266zM308.301 408.618c-22.022 0-38.037-10.010-52.051-30.029-12.012-20.020-18.018-48.047-18.018-82.080s6.006-60.059 18.018-80.078c14.014-20.020 30.029-30.029 52.051-30.029 20.020 0 38.037 10.010 50.049 28.027 12.012 20.020 18.018 46.045 18.018 82.080 0 34.033-6.006 62.061-18.018 82.080s-28.027 30.029-50.049 30.029zM6.006 692.895v-784.766l596.583-124.121v1025.001zM404.395 168.383c-24.023-32.031-58.057-50.049-98.096-50.049s-72.070 16.016-96.094 48.047c-26.025 32.031-38.037 74.072-38.037 126.123 0 54.053 12.012 98.096 38.037 132.129s58.057 52.051 100.098 52.051c40.039 0 72.070-16.016 96.094-50.049 24.023-32.031 36.035-74.072 36.035-126.123 0-54.053-12.012-98.096-38.037-132.129z" />
<glyph unicode="&#xe011;" glyph-name="coderwall" d="M894.874 504.712c72.070 0 128.125 58.057 128.125 128.125s-56.055 128.125-128.125 128.125c-70.068 0-126.123-58.057-126.123-128.125s56.055-128.125 126.123-128.125zM894.874 424.633c-70.068 0-126.123-58.057-126.123-128.125s56.055-128.125 126.123-128.125c72.070 0 128.125 58.057 128.125 128.125s-56.055 128.125-128.125 128.125zM894.874 88.305c-70.068 0-126.123-58.057-126.123-128.125s56.055-128.125 126.123-128.125c72.070 0 128.125 58.057 128.125 128.125s-56.055 128.125-128.125 128.125zM508.497 760.962c-70.068 0-128.125-58.057-128.125-128.125s58.057-128.125 128.125-128.125c70.068 0 128.125 58.057 128.125 128.125s-58.057 128.125-128.125 128.125zM508.497 424.633c-70.068 0-128.125-58.057-128.125-128.125s58.057-128.125 128.125-128.125c70.068 0 128.125 58.057 128.125 128.125s-58.057 128.125-128.125 128.125zM126.123 760.962c-70.068 0-128.125-58.057-128.125-128.125s58.057-128.125 128.125-128.125c70.068 0 128.125 58.057 128.125 128.125s-58.057 128.125-128.125 128.125z" />
<glyph unicode="&#xe012;" glyph-name="tripadvisor" d="M300.293 252.465c0-22.022-18.018-42.041-42.041-42.041-22.022 0-42.041 20.020-42.041 42.041 0 24.023 20.020 42.041 42.041 42.041 24.023 0 42.041-18.018 42.041-42.041zM808.79 252.465c0-22.022-20.020-42.041-42.041-42.041-24.023 0-42.041 20.020-42.041 42.041 0 24.023 18.018 42.041 42.041 42.041 22.022 0 42.041-18.018 42.041-42.041zM258.252 376.587c-32.031 0-64.063-12.012-88.086-36.035-22.022-24.023-36.035-54.053-36.035-88.086 0-32.031 14.014-64.063 36.035-88.086 24.023-22.022 56.055-36.035 88.086-36.035 70.068 0 124.121 56.055 124.121 124.121s-54.053 124.121-124.121 124.121zM258.252 166.381c-22.022 0-44.043 10.010-60.059 26.025s-26.025 38.037-26.025 60.059c0 24.023 10.010 46.045 26.025 62.061s38.037 24.023 60.059 24.023c48.047 0 86.084-38.037 86.084-86.084s-38.037-86.084-86.084-86.084zM766.749 376.587c-34.033 0-64.063-12.012-88.086-36.035s-36.035-54.053-36.035-88.086c0-32.031 12.012-64.063 36.035-88.086 24.023-22.022 54.053-36.035 88.086-36.035 68.066 0 124.121 56.055 124.121 124.121s-56.055 124.121-124.121 124.121zM766.749 166.381c-24.023 0-46.045 10.010-62.061 26.025s-24.023 38.037-24.023 60.059c0 24.023 8.008 46.045 24.023 62.061s38.037 24.023 62.061 24.023c46.045 0 86.084-38.037 86.084-86.084s-40.039-86.084-86.084-86.084zM966.944 416.626c10.010 30.029 24.023 64.063 44.043 84.082h-168.164c-4.004 0-6.006 2.002-10.010 2.002-8.008 14.014-72.070 96.094-324.317 96.094-278.272 0-326.319-98.096-326.319-98.096h-178.174c22.022-20.020 38.037-62.061 48.047-92.090-32.031-44.043-52.051-98.096-52.051-156.152 0-142.139 116.113-258.252 258.252-258.252 80.078 0 150.147 36.035 198.194 92.090l58.057-82.080 52.051 84.082c46.045-58.057 118.115-94.092 200.196-94.092 142.139 0 258.252 116.113 258.252 258.252 0 62.061-22.022 120.117-58.057 164.16zM258.252 44.262c-114.111 0-208.203 94.092-208.203 208.203 0 116.113 94.092 208.203 208.203 208.203 116.113 0 208.203-92.090 208.203-208.203 0-114.111-92.090-208.203-208.203-208.203zM262.256 496.704c0 0 66.065 76.074 244.239 76.074h18.018c176.172 0 244.239-76.074 244.239-76.074s-190.186 32.031-254.248-202.197c-62.061 234.229-252.246 202.197-252.246 202.197zM766.749 44.262c-116.113 0-208.203 94.092-208.203 208.203 0 116.113 92.090 208.203 208.203 208.203 114.111 0 208.203-92.090 208.203-208.203 0-114.111-94.092-208.203-208.203-208.203z" />
<glyph unicode="&#xe013;" glyph-name="appnet" d="M512.5 682.886l-512.5-772.755h104.102l116.113 178.174h584.571l116.113-178.174h104.102zM288.282 178.393l224.219 338.33 224.219-338.33z" />
<glyph unicode="&#xe014;" glyph-name="goodreads" d="M738.721 788.989v-102.1c-52.051 76.074-138.135 120.117-234.229 120.117-192.188 0-320.313-146.143-320.313-366.358 0-96.094 26.025-182.178 74.072-246.24 54.053-74.072 134.131-114.111 234.229-114.111s194.19 44.043 246.24 116.113v-106.104c0-156.152-72.070-228.223-232.227-228.223-134.131 0-202.197 56.055-208.203 164.16v24.023h-72.070l2.002-22.022c4.004-154.151 106.104-244.239 282.276-244.239 200.196 0 310.303 108.106 310.303 306.299v698.682h-82.080zM756.739 440.649c0-142.139-78.076-284.278-252.246-284.278-144.141 0-238.233 112.109-238.233 284.278 0 134.131 64.063 290.283 248.242 290.283 64.063 0 118.115-22.022 160.156-64.063 54.053-54.053 84.082-136.133 82.080-226.221z" />
<glyph unicode="&#xe015;" glyph-name="tripit" d="M484.473 222.436l-362.354 4.004c-6.006 0-10.010 0-14.014-4.004s-6.006-8.008-10.010-12.012-16.016-14.014-26.025-18.018c-22.022-4.004-44.043 0-60.059 14.014-14.014 14.014-16.016 36.035-6.006 54.053 16.016 30.029 62.061 40.039 90.088 18.018 8.008-8.008 14.014-16.016 16.016-28.027 0-4.004 2.002-4.004 6.006-4.004l368.36 4.004c6.006 0 4.004 0 4.004-4.004 0-6.006 0-12.012 0-20.020 0-4.004-2.002-4.004-6.006-4.004zM662.647 222.436c10.010 28.027-2.002 58.057-24.023 74.072-38.037 24.023-92.090 12.012-116.113-24.023-14.014-22.022-16.016-48.047-2.002-70.068 14.014-20.020 38.037-28.027 62.061-30.029-2.002 0-2.002 0 4.004 0 10.010 0 8.008 0 4.004 0 32.031 2.002 62.061 22.022 72.070 50.049zM984.962 284.497c-24.023 2.002-46.045-12.012-52.051-34.033-2.002-4.004-2.002-4.004-6.006-4.004l-238.233 2.002c-2.002 0-2.002-6.006-2.002-8.008 0-4.004 0-8.008-2.002-12.012 0-4.004 0-4.004 4.004-4.004l240.235 4.004c4.004-2.002 6.006-12.012 8.008-16.016 4.004-4.004 8.008-10.010 12.012-14.014 10.010-8.008 24.023-10.010 36.035-8.008 22.022 2.002 40.039 22.022 40.039 46.045s-16.016 44.043-40.039 48.047zM578.565 394.604c4.004 0 4.004-2.002 4.004-6.006l-4.004-56.055c-2.002-4.004 2.002-6.006 6.006-6.006 6.006 2.002 12.012 2.002 18.018 0 4.004 0 4.004 2.002 4.004 6.006 0 18.018-2.002 38.037-2.002 58.057 0 6.006 8.008 6.006 14.014 8.008 4.004 4.004 10.010 8.008 14.014 12.012 8.008 8.008 12.012 20.020 12.012 34.033 2.002 22.022-12.012 42.041-34.033 50.049-20.020 8.008-44.043 0-58.057-18.018-22.022-28.027-10.010-70.068 26.025-82.080zM830.811 434.643c0-2.002 2.002-2.002 2.002-2.002s-2.002 0-2.002 2.002zM666.651 298.51c2.002-4.004 6.006-8.008 8.008-10.010 2.002-4.004 6.006-2.002 8.008 0l122.119 78.076c2.002 0 4.004-2.002 8.008-4.004 12.012-6.006 28.027-6.006 40.039 4.004 28.027 22.022 12.012 66.065-22.022 68.066-24.023 0-42.041-22.022-38.037-46.045 2.002-4.004 0-6.006-2.002-6.006-44.043-24.023-86.084-50.049-128.125-76.074-4.004-4.004 2.002-6.006 4.004-8.008zM388.379 136.352c0 14.014 0-6.006 0 0zM512.5 180.395c-4.004 4.004-6.006 8.008-8.008 10.010-2.002 4.004-4.004 4.004-6.006 2.002-14.014-10.010-28.027-18.018-44.043-28.027-2.002-2.002-4.004-2.002-6.006 0-12.012 10.010-26.025 12.012-40.039 4.004-12.012-6.006-20.020-18.018-20.020-32.031-2.002-26.025 24.023-44.043 46.045-38.037 20.020 6.006 32.031 24.023 28.027 42.041 0 4.004 0 4.004 4.004 6.006 16.016 8.008 32.031 18.018 48.047 28.027 4.004 2.002 0 4.004-2.002 6.006zM398.389 350.561c2.002 0 4.004 2.002 6.006 2.002 4.004 0 6.006-2.002 8.008-4.004l86.084-68.066c4.004-2.002 4.004-2.002 6.006 2.002 4.004 4.004 8.008 10.010 12.012 14.014s-4.004 6.006-8.008 8.008l-82.080 60.059c-6.006 4.004-12.012 6.006-10.010 14.014 0 0 0 2.002 0 2.002-2.002 28.027-42.041 38.037-56.055 12.012-6.006-12.012-4.004-28.027 6.006-36.035 8.008-8.008 20.020-12.012 32.031-6.006zM690.674 176.391c-8.008-2.002-12.012 0-18.018 6.006-2.002 0-2.002 2.002-4.004 2.002-2.002 4.004-4.004 4.004-8.008 0-2.002-2.002-6.006-6.006-10.010-8.008-2.002-2.002-2.002-2.002 2.002-4.004 4.004-4.004 10.010-6.006 16.016-10.010 4.004-2.002 2.002-6.006 2.002-10.010s0-8.008 2.002-12.012c4.004-6.006 10.010-12.012 20.020-12.012 14.014-2.002 24.023 10.010 24.023 24.023 0 0 0 0 0 0v0c0 14.014-12.012 26.025-26.025 24.023z" />
<glyph unicode="&#xe016;" glyph-name="lanyrd" d="M546.534 64.282c8.008-4.004 16.016 2.002 24.023 4.004 88.086 26.025 182.178 58.057 278.272 88.086 38.037 12.012 74.072 26.025 92.090 14.014 14.014-8.008 20.020-28.027 26.025-44.043 2.002-8.008 2.002-18.018 4.004-28.027 2.002-6.006 6.006-12.012 6.006-20.020 0-2.002-2.002-6.006-2.002-6.006 4.004-20.020 10.010-28.027 12.012-48.047 0-2.002-2.002-10.010-2.002-18.018s-4.004-22.022-10.010-30.029c0 0-6.006 0-6.006-2.002 0 0 2.002-2.002 2.002-4.004-2.002 0-8.008 0-8.008-2.002-8.008-18.018-102.1-40.039-132.129-48.047l-318.311-102.1c-66.065-20.020-122.119-42.041-150.147-32.031-42.041 16.016-70.068 140.137-94.092 216.211-40.039 124.121-66.065 224.219-106.104 336.328-2.002 4.004-2.002 12.012-6.006 16.016-2.002 4.004-4.004 4.004-6.006 10.010-12.012 32.031-16.016 74.072-34.033 108.106-2.002 2.002-6.006 4.004-6.006 8.008-8.008 18.018-12.012 40.039-20.020 62.061-14.014 40.039-28.027 68.066-40.039 118.115-8.008 22.022-14.014 44.043-12.012 56.055 2.002 4.004 12.012 18.018 20.020 24.023 6.006 6.006 18.018 8.008 32.031 14.014 38.037 18.018 172.168 68.066 208.203 50.049 32.031-18.018 50.049-102.1 72.070-170.166 20.020-66.065 36.035-130.127 54.053-188.184z" />
<glyph unicode="&#xe017;" glyph-name="slideshare" d="M378.37 496.704c-66.065 0-120.117-50.049-120.117-112.109s54.053-112.109 120.117-112.109c66.065 0 120.117 50.049 120.117 112.109s-54.053 112.109-120.117 112.109zM662.647 498.706c-66.065 0-120.117-50.049-120.117-112.109 0-64.063 54.053-114.111 120.117-114.111 68.066 0 122.119 50.049 122.119 114.111 0 62.061-54.053 112.109-122.119 112.109zM978.956 320.532c-4.004-2.002-6.006-6.006-16.016-8.008v396.387c0 56.055-36.035 100.098-86.084 100.098h-718.702c-50.049 0-96.094-44.043-96.094-100.098v-396.387c0 2.002-6.006 6.006-10.010 8.008-32.031 22.022-50.049-8.008-32.031-36.035 38.037-44.043 106.104-100.098 214.209-144.141-114.111-382.373 274.268-444.434 268.262-246.24 0-4.004 0 110.108 0 192.188 12.012-2.002 20.020-4.004 28.027-6.006 0-82.080 0-190.186 0-186.182-6.006-198.194 382.373-136.133 270.264 246.24 106.104 44.043 174.17 100.098 210.205 144.141 20.020 28.027-2.002 58.057-32.031 36.035zM912.891 282.495c-134.131-74.072-254.248-62.061-318.311-60.059-48.047 4.004-64.063-18.018-66.065-48.047-10.010 8.008-22.022 18.018-34.033 28.027-2.002 2.002-2.002 4.004-4.004 6.006-12.012 10.010-26.025 16.016-54.053 14.014-62.061-2.002-190.186-14.014-314.307 58.057v384.375c0 70.068 16.016 92.090 80.078 92.090h636.622c60.059 0 74.072-28.027 74.072-92.090z" />
<glyph unicode="&#xe018;" glyph-name="buffer" d="M1006.983 30.248c-2.002 2.002-6.006 4.004-8.008 6.006-26.025 12.012-54.053 24.023-80.078 36.035-22.022 12.012-46.045 12.012-70.068 0-100.098-46.045-200.196-94.092-300.293-140.137-24.023-10.010-48.047-12.012-70.068 0-100.098 46.045-202.197 94.092-302.295 140.137-24.023 12.012-48.047 12.012-72.070 0s-50.049-24.023-74.072-34.033c-8.008-4.004-20.020-8.008-20.020-20.020 0-10.010 12.012-12.012 20.020-16.016 148.145-70.068 296.289-140.137 446.436-208.203 24.023-12.012 48.047-12.012 70.068-2.002 150.147 70.068 300.293 140.137 450.44 210.205 4.004 2.002 8.008 4.004 10.010 6.006 10.010 6.006 10.010 16.016 0 22.022zM16.016 562.768c4.004-2.002 10.010-6.006 14.014-8.008 150.147-68.066 298.291-138.135 446.436-208.203 24.023-10.010 48.047-10.010 72.070 0 148.145 70.068 298.291 140.137 446.436 208.203 4.004 4.004 10.010 6.006 14.014 10.010 8.008 4.004 8.008 12.012 0 18.018-4.004 4.004-10.010 6.006-14.014 10.010-148.145 68.066-296.289 138.135-444.434 206.201-26.025 12.012-50.049 12.012-76.074 0-148.145-68.066-296.289-138.135-444.434-208.203-6.006-2.002-10.010-4.004-14.014-6.006-8.008-6.006-8.008-16.016 0-22.022zM1006.983 306.518c-2.002 2.002-6.006 4.004-8.008 6.006-26.025 12.012-54.053 24.023-80.078 36.035-22.022 12.012-46.045 12.012-70.068 0-100.098-46.045-200.196-94.092-300.293-140.137-24.023-10.010-48.047-10.010-70.068 0-100.098 46.045-202.197 94.092-302.295 140.137-24.023 12.012-48.047 12.012-72.070 0s-50.049-24.023-74.072-34.033c-8.008-4.004-20.020-8.008-20.020-18.018 0-12.012 12.012-14.014 20.020-18.018 148.145-70.068 296.289-140.137 446.436-208.203 24.023-12.012 48.047-12.012 70.068-2.002 150.147 70.068 300.293 140.137 450.44 210.205 4.004 2.002 8.008 4.004 10.010 6.006 10.010 6.006 10.010 16.016 0 22.022z" />
<glyph unicode="&#xe019;" glyph-name="disqus" d="M526.514 418.628h-54.053v-244.239h54.053c82.080 0 140.137 40.039 140.137 122.119v0c0 80.078-58.057 122.119-140.137 122.119zM530.518 794.995c-272.266 0-492.481-224.219-492.481-498.487 0-74.072 16.016-144.141 44.043-206.201l-82.080-202.197 212.207 28.027c86.084-72.070 196.192-118.115 318.311-118.115 274.268 0 494.483 224.219 494.483 498.487s-220.215 498.487-494.483 498.487zM798.78 298.51c0-144.141-100.098-248.242-276.27-248.242h-184.18v492.481h186.182c174.17 0 274.268-100.098 274.268-244.239z" />
<glyph unicode="&#xe01a;" glyph-name="vkontakte" d="M990.968 102.319c-30.029 40.039-56.055 64.063-94.092 100.098-16.016 16.016-38.037 32.031-40.039 54.053-2.002 30.029 26.025 58.057 40.039 78.076 2.002 2.002 4.004 4.004 6.006 6.006s2.002 2.002 4.004 4.004c0 2.002 2.002 2.002 2.002 4.004 2.002 2.002 2.002 4.004 4.004 4.004 0 2.002 2.002 2.002 2.002 2.002 2.002 2.002 2.002 4.004 4.004 6.006 26.025 34.033 52.051 64.063 78.076 104.102 8.008 14.014 34.033 64.063 26.025 84.082-12.012 24.023-74.072 16.016-108.106 16.016-42.041 0-88.086 8.008-118.115-4.004-18.018-6.006-30.029-46.045-40.039-68.066-16.016-34.033-30.029-62.061-46.045-88.086 0-2.002-2.002-4.004-4.004-6.006 0 0 0 0 0 0 0-2.002-2.002-4.004-4.004-6.006 0 0 0 0 0 0-2.002-4.004-4.004-8.008-6.006-10.010 0-2.002-2.002-2.002-2.002-2.002 0-2.002-2.002-2.002-2.002-4.004-2.002-2.002-2.002-2.002-2.002-4.004-2.002 0-2.002-2.002-4.004-4.004 0 0-2.002-2.002-2.002-4.004-2.002 0-2.002-2.002-2.002-2.002-2.002-2.002-4.004-4.004-6.006-8.008-14.014-20.020-28.027-44.043-54.053-48.047-2.002 2.002-2.002 2.002-4.004 2.002 0 0 0 2.002 0 2.002-2.002 0-2.002 0-2.002 0 0 2.002-2.002 2.002-2.002 2.002s0 0-2.002 2.002c0 0 0 0 0 0s0 2.002-2.002 2.002c0 0 0 0 0 0 0 2.002-2.002 2.002-2.002 2.002s0 2.002 0 2.002c0 0-2.002 0-2.002 2.002 0 0 0 0 0 0 0 2.002 0 2.002-2.002 2.002 0 0 0 2.002 0 2.002s0 0 0 2.002c0 0-2.002 0-2.002 0 0 2.002 0 2.002 0 4.004 0 0 0 0 0 0-2.002 2.002-2.002 2.002-2.002 2.002 0 2.002 0 2.002 0 2.002s0 2.002 0 2.002c0 0 0 2.002-2.002 2.002 0 0 0 2.002 0 2.002s0 0 0 2.002c0 0 0 0 0 2.002 0 0 0 0 0 0 0 2.002 0 2.002-2.002 2.002 0 2.002 0 2.002 0 2.002 0 2.002 0 2.002 0 2.002 0 2.002 0 2.002 0 2.002 0 2.002 0 2.002 0 2.002 0 2.002 0 2.002 0 2.002 0 2.002 0 2.002 0 4.004 0 0 0 0 0 0 0 2.002 0 2.002 0 4.004 0 0 0 0 0 0 0 2.002 0 2.002 0 4.004 0 0-2.002 0-2.002 2.002 0 0 0 2.002 0 2.002s0 2.002 0 2.002c0 0 0 2.002 0 2.002s0 2.002 0 2.002c0 0 0 2.002 0 2.002 0 2.002 2.002 2.002 2.002 2.002 0 2.002 0 2.002 0 2.002 0 2.002 0 2.002 0 2.002 0 2.002 0 2.002 0 4.004 0 0 0 0 0 0 0 2.002 0 2.002 0 4.004 0 0 0 0 0 0 0 6.006 0 10.010 0 16.016 0 0 0 2.002 0 2.002 0 4.004 0 10.010 2.002 14.014 0 44.043 14.014 102.1-6.006 136.133-18.018 30.029-86.084 26.025-134.131 26.025-58.057 0-104.102-4.004-122.119-38.037 20.020-14.014 42.041-14.014 52.051-34.033 12.012-22.022 14.014-68.066 12.012-110.108 0-2.002 0-4.004 0-6.006 0-36.035-2.002-94.092-26.025-98.096s-44.043 32.031-58.057 50.049c-2.002 4.004-4.004 6.006-6.006 10.010 0 0-2.002 2.002-2.002 2.002-2.002 2.002-2.002 4.004-4.004 8.008 0 0-2.002 2.002-2.002 2.002-2.002 2.002-4.004 4.004-4.004 6.006-2.002 2.002-2.002 2.002-2.002 4.004-2.002 2.002-4.004 6.006-6.006 8.008-18.018 30.029-36.035 60.059-52.051 98.096-12.012 22.022-26.025 60.059-38.037 66.065-24.023 12.012-72.070 6.006-104.102 6.006-36.035 0-74.072 6.006-96.094-12.012 0-40.039 20.020-74.072 36.035-106.104 22.022-44.043 44.043-86.084 68.066-126.123 0-2.002 2.002-4.004 2.002-6.006 4.004-4.004 6.006-10.010 10.010-14.014 0-2.002 2.002-4.004 2.002-6.006 4.004-4.004 6.006-10.010 10.010-14.014 0-2.002 2.002-4.004 4.004-6.006 4.004-6.006 8.008-12.012 12.012-18.018 0 0 0 0 0 0 4.004-6.006 8.008-14.014 12.012-20.020 2.002-2.002 2.002-4.004 4.004-4.004 4.004-6.006 6.006-10.010 10.010-14.014 0-2.002 2.002-4.004 4.004-6.006 2.002-4.004 6.006-10.010 10.010-14.014 0-2.002 2.002-4.004 4.004-6.006 4.004-6.006 8.008-12.012 14.014-18.018 62.061-78.076 132.129-152.149 270.264-168.164 44.043-4.004 108.106-8.008 122.119 18.018 20.020 32.031-2.002 108.106 42.041 114.111 30.029 6.006 56.055-40.039 74.072-58.057 30.029-34.033 66.065-70.068 118.115-80.078 0 0 2.002 0 4.004 0 46.045 20.020 184.18-22.022 192.188 36.035 2.002 20.020-22.022 52.051-34.033 66.065z" />
<glyph unicode="&#xe01b;" glyph-name="whatsapp" d="M874.854 660.864c-96.094 96.094-224.219 148.145-360.352 148.145-280.274 0-508.497-228.223-508.497-508.497 0-88.086 24.023-176.172 68.066-254.248l-72.070-262.256 270.264 70.068c74.072-40.039 156.152-62.061 242.237-62.061v0c0 0 0 0 0 0 280.274 0 508.497 228.223 508.497 508.497 0 136.133-52.051 264.258-148.145 360.352zM514.502-121.9v0c-76.074 0-150.147 20.020-214.209 60.059l-16.016 8.008-160.156-42.041 42.041 156.152-10.010 16.016c-42.041 68.066-64.063 144.141-64.063 224.219 0 234.229 190.186 422.413 422.413 422.413 112.109 0 218.213-44.043 298.291-124.121s124.121-186.182 124.121-298.291c0-232.227-190.186-422.413-422.413-422.413zM746.729 194.409c-14.014 6.006-76.074 38.037-88.086 42.041-10.010 4.004-20.020 6.006-28.027-6.006-8.008-14.014-32.031-42.041-40.039-50.049s-14.014-10.010-28.027-4.004c-12.012 6.006-52.051 20.020-102.1 64.063-36.035 32.031-62.061 74.072-70.068 88.086-8.008 12.012 0 18.018 6.006 26.025 6.006 4.004 12.012 14.014 18.018 22.022 8.008 6.006 10.010 12.012 14.014 20.020s2.002 16.016-2.002 22.022c-2.002 6.006-28.027 70.068-38.037 94.092-12.012 26.025-22.022 22.022-30.029 22.022-6.006 0-16.016 0-24.023 0s-22.022-2.002-34.033-14.014c-12.012-14.014-44.043-44.043-44.043-106.104 0-64.063 46.045-124.121 52.051-132.129s90.088-136.133 216.211-192.188c30.029-12.012 54.053-20.020 72.070-26.025 32.031-10.010 58.057-8.008 80.078-6.006 26.025 4.004 76.074 32.031 86.084 62.061 12.012 28.027 12.012 54.053 8.008 60.059-4.004 4.004-12.012 8.008-24.023 14.014z" />
<glyph unicode="&#xe01c;" glyph-name="patreon" d="M384.375 100.317c-2.002-4.004-2.002-6.006-2.002-10.010 0-52.051 0-102.1 0-154.151 0-8.008 2.002-10.010 10.010-12.012 144.141-44.043 274.268-16.016 386.377 84.082 70.068 62.061 110.108 142.139 124.121 234.229 26.025 194.19-92.090 376.368-280.274 430.42-218.213 62.061-440.43-68.066-490.479-286.28-8.008-28.027-10.010-58.057-10.010-86.084-2.002-168.164-2.002-336.328-2.002-502.491 0-14.014 0-14.014-12.012-14.014-32.031 0-66.065 0-98.096 0-8.008 0-10.010 2.002-10.010 10.010 0 172.168-2.002 346.338 0 518.506 2.002 92.090 28.027 176.172 78.076 254.248 80.078 126.123 194.19 204.199 340.332 234.229 44.043 8.008 90.088 10.010 134.131 6.006 114.111-8.008 216.211-52.051 302.295-128.125 72.070-64.063 122.119-144.141 150.147-236.231 10.010-34.033 16.016-68.066 18.018-102.1 6.006-72.070 0-140.137-24.023-208.203-54.053-152.149-156.152-256.25-306.299-316.309-58.057-22.022-120.117-32.031-182.178-32.031-74.072 0-146.143 0-218.213 0-14.014 0-14.014 0-14.014 14.014 0 168.164 0 336.328 0 504.493 2.002 108.106 84.082 206.201 192.188 224.219 128.125 22.022 244.239-56.055 272.266-182.178 28.027-128.125-60.059-258.252-188.184-278.272-58.057-10.010-112.109 0-162.158 30.029-2.002 2.002-6.006 2.002-8.008 4.004z" />
<glyph unicode="&#xe01d;" glyph-name="storehouse" d="M512.5 466.674l-288.282-166.162v334.326l288.282-168.164 296.289 172.168-296.289 170.166-296.289-170.166v-342.334l296.289-170.166 288.282 166.162v-334.326l-288.282 168.164-296.289-172.168 296.289-170.166 296.289 170.166v342.334z" />
<glyph unicode="&#xe01e;" glyph-name="pocket" d="M1025.001 632.837c0 28.027 2.002 54.053-14.014 78.076-12.012 18.018-32.031 34.033-52.051 40.039-28.027 8.008-58.057 6.006-84.082 4.004-120.117 0-242.237 2.002-362.354 2.002-14.014 0-26.025 0-40.039 0-16.016 0-32.031 0-50.049 0-58.057 0-118.115 0-178.174 0-30.029 0-60.059 0-90.088 0-16.016 0-32.031 0-48.047 0-14.014 0-26.025 0-38.037-4.004-42.041-12.012-68.066-52.051-68.066-96.094 0-60.059 0-120.117 0-180.176 0-58.057-2.002-118.115 2.002-178.174 4.004-54.053 20.020-110.108 42.041-160.156 42.041-90.088 110.108-166.162 194.19-220.215 92.090-58.057 202.197-86.084 310.303-78.076 106.104 8.008 208.203 50.049 290.283 118.115 78.076 62.061 134.131 146.143 164.16 240.235 16.016 54.053 22.022 112.109 22.022 168.164 0 58.057 0 118.115 0 178.174 0 30.029 0 60.059 0 88.086zM820.802 400.61c-6.006-26.025-32.031-44.043-50.049-62.061-46.045-44.043-92.090-88.086-138.135-130.127-24.023-24.023-46.045-46.045-70.068-68.066-18.018-16.016-42.041-24.023-66.065-18.018-28.027 6.006-48.047 32.031-66.065 50.049-24.023 22.022-46.045 44.043-68.066 64.063-46.045 44.043-92.090 88.086-138.135 134.131-34.033 34.033-28.027 96.094 20.020 116.113 22.022 8.008 48.047 6.006 66.065-6.006 12.012-10.010 24.023-20.020 34.033-32.031 12.012-10.010 24.023-22.022 34.033-32.031 46.045-44.043 88.086-88.086 134.131-128.125 52.051 48.047 104.102 98.096 156.152 148.145 22.022 20.020 42.041 48.047 74.072 54.053 24.023 4.004 50.049-6.006 66.065-24.023 14.014-18.018 20.020-44.043 12.012-66.065z" />
<glyph unicode="&#xe01f;" glyph-name="mail" d="M546.534 178.393c-10.010-8.008-22.022-14.014-34.033-14.014s-24.023 6.006-34.033 14.014l-478.467 390.381v-614.6h1025.001v614.6zM512.5 296.508c10.010 0 20.020 4.004 28.027 10.010l406.397 332.325h-868.848l406.397-332.325c8.008-6.006 18.018-10.010 28.027-10.010z" />
<glyph unicode="&#xe020;" glyph-name="blogger" d="M952.931 418.628h-44.043c-44.043 0-68.066 30.029-68.066 62.061v28.027c0 146.143-162.158 300.293-300.293 300.293h-216.211c-182.178 0-324.317-144.141-324.317-326.319v-388.379c0-170.166 146.143-310.303 298.291-310.303h410.401c168.164 0 316.309 142.139 316.309 314.307v246.24c0 46.045-16.016 74.072-72.070 74.072zM324.317 542.749h186.182c32.031 0 60.059-28.027 60.059-62.061 0-32.031-28.027-62.061-60.059-62.061h-186.182c-32.031 0-60.059 30.029-60.059 62.061s28.027 62.061 60.059 62.061zM694.678 50.268h-370.362c-32.031 0-60.059 24.023-60.059 56.055 0 34.033 28.027 56.055 60.059 56.055h370.362c32.031 0 60.059-22.022 60.059-56.055 0-32.031-28.027-56.055-60.059-56.055z" />
<glyph unicode="&#xe021;" glyph-name="technorati" d="M1025.001 809.009v-708.692c-174.17-106.104-382.373-128.125-574.561-92.090-96.094-50.049-182.178-120.117-276.27-174.17 6.006 74.072 16.016 146.143 24.023 220.215 2.002 30.029 12.012 68.066-20.020 86.084-118.115 94.092-198.194 248.242-180.176 402.393 10.010 100.098 62.061 184.18 124.121 266.26zM846.827 678.882c-78.076 58.057-180.176 84.082-276.27 80.078-110.108-2.002-220.215-42.041-294.287-122.119-42.041-44.043-74.072-104.102-74.072-166.162-4.004-86.084 44.043-168.164 110.108-218.213 140.137-106.104 346.338-116.113 498.487-30.029 86.084 48.047 154.151 134.131 156.152 234.229 2.002 90.088-48.047 172.168-120.117 222.217z" />
<glyph unicode="&#xe022;" glyph-name="reddit" d="M1025.001 304.516c0 56.055-44.043 100.098-100.098 100.098-32.031 0-60.059-14.014-78.076-38.037-80.078 58.057-192.188 94.092-318.311 96.094l74.072 220.215 184.18-44.043c4.004 0 6.006 0 8.008 0 2.002-42.041 36.035-76.074 80.078-76.074s78.076 36.035 78.076 80.078c0 44.043-34.033 78.076-78.076 78.076-34.033 0-60.059-18.018-74.072-46.045 0 0-2.002 2.002-4.004 2.002l-202.197 48.047c-10.010 2.002-20.020-4.004-22.022-12.012l-86.084-250.244c-122.119-4.004-230.225-38.037-310.303-94.092-18.018 22.022-44.043 36.035-76.074 36.035-56.055 0-100.098-44.043-100.098-100.098 0-40.039 24.023-76.074 60.059-92.090-4.004-14.014-6.006-30.029-6.006-46.045 0-164.16 204.199-298.291 456.446-298.291s456.446 134.131 456.446 298.291c0 14.014-2.002 30.029-6.006 44.043 38.037 16.016 64.063 52.051 64.063 94.092zM278.272 224.438c0 40.039 34.033 74.072 74.072 74.072s74.072-34.033 74.072-74.072c0-40.039-34.033-74.072-74.072-74.072s-74.072 34.033-74.072 74.072zM678.663 20.239c-34.033-34.033-88.086-50.049-166.162-50.049s-132.129 16.016-166.162 50.049c-4.004 4.004-4.004 12.012 0 18.018 4.004 4.004 12.012 4.004 16.016 0 30.029-30.029 78.076-44.043 150.147-44.043 70.068 0 120.117 14.014 150.147 44.043 4.004 4.004 12.012 4.004 16.016 0 4.004-6.006 4.004-14.014 0-18.018zM674.659 150.366c-42.041 0-76.074 32.031-76.074 74.072 0 40.039 34.033 74.072 76.074 74.072 40.039 0 72.070-34.033 72.070-74.072 0-42.041-32.031-74.072-72.070-74.072z" />
<glyph unicode="&#xe023;" glyph-name="dribbble" d="M510.499 805.005c-282.276 0-512.5-230.225-512.5-512.5s230.225-512.5 512.5-512.5c284.278 0 512.5 230.225 512.5 512.5s-228.223 512.5-512.5 512.5zM850.831 568.774c60.059-74.072 98.096-168.164 98.096-272.266-14.014 4.004-158.154 32.031-304.297 14.014-4.004 8.008-6.006 16.016-10.010 22.022-8.008 22.022-18.018 44.043-28.027 64.063 160.156 66.065 234.229 160.156 244.239 172.168zM510.499 730.933c112.109 0 214.209-42.041 290.283-110.108-6.006-12.012-72.070-100.098-228.223-158.154-72.070 130.127-152.149 238.233-164.16 256.25 34.033 8.008 68.066 12.012 102.1 12.012zM326.319 688.891c10.010-16.016 88.086-124.121 162.158-254.248-206.201-54.053-386.377-52.051-406.397-52.051 30.029 136.133 120.117 248.242 244.239 306.299zM74.072 292.504c0 4.004 0 8.008 0 14.014 18.018-2.002 230.225-4.004 450.44 62.061 12.012-24.023 24.023-50.049 34.033-74.072-6.006-2.002-10.010-4.004-16.016-6.006-226.221-72.070-346.338-272.266-356.348-288.282-70.068 78.076-112.109 180.176-112.109 292.285zM510.499-145.924c-100.098 0-194.19 36.035-268.262 92.090 8.008 18.018 96.094 188.184 344.336 274.268 0 0 2.002 0 2.002 2.002 62.061-160.156 88.086-294.287 94.092-332.325-52.051-22.022-110.108-36.035-172.168-36.035zM756.739-69.849c-6.006 26.025-28.027 154.151-86.084 312.305 138.135 22.022 258.252-14.014 272.266-20.020-18.018-122.119-88.086-226.221-186.182-292.285z" />
<glyph unicode="&#xe024;" glyph-name="stumbleupon" d="M512.5 512.719c-30.029 0-54.053-24.023-54.053-54.053v-328.321c-2.002-124.121-104.102-226.221-230.225-226.221s-228.223 104.102-228.223 230.225c0 2.002 0 142.139 0 142.139h176.172v-140.137c0-30.029 24.023-54.053 54.053-54.053s54.053 24.023 54.053 54.053v330.323c4.004 122.119 104.102 220.215 228.223 220.215s224.219-98.096 228.223-220.215v-74.072l-104.102-30.029-70.068 32.031v64.063c0 30.029-24.023 54.053-54.053 54.053zM1025.001 134.35c0-126.123-102.1-230.225-228.223-230.225s-228.223 102.1-230.225 228.223v142.139l70.068-32.031 104.102 32.031v-144.141c0-30.029 24.023-54.053 54.053-54.053s54.053 24.023 54.053 54.053v146.143h176.172c0 0 0-140.137 0-142.139z" />
<glyph unicode="&#xe025;" glyph-name="digg" d="M308.301 460.669h102.1v-348.34h-102.1zM164.16 604.809h102.1v-492.481h-266.26v348.34h164.16zM164.16 378.588h-62.061v-184.18h62.061zM308.301 500.708h102.1v104.102h-102.1zM450.44 460.669h266.26v-472.461h-266.26v82.080h164.16v42.041h-164.16zM552.54 194.409h62.061v184.18h-62.061zM1025.001 460.669v-472.461h-266.26v82.080h164.16v42.041h-164.16v348.34zM922.901 378.588h-62.061v-184.18h62.061z" />
<glyph unicode="&#xe026;" glyph-name="envato" d="M828.809 801.001c-30.029 16.016-116.113 6.006-220.215-26.025-180.176-124.121-332.325-306.299-344.336-598.585-2.002-6.006-20.020 2.002-22.022 4.004-50.049 94.092-68.066 192.188-28.027 334.326 8.008 12.012-18.018 28.027-22.022 24.023-8.008-10.010-46.045-50.049-70.068-92.090-124.121-214.209-44.043-486.475 172.168-606.592 214.209-120.117 486.475-42.041 606.592 172.168 138.135 248.242 10.010 742.725-72.070 788.77z" />
<glyph unicode="&#xe027;" glyph-name="behance" d="M922.901 512.719h-256.25v60.059h256.25zM498.487 270.483c20.020-28.027 30.029-60.059 30.029-100.098 0-32.031-6.006-60.059-18.018-82.080-14.014-24.023-30.029-42.041-50.049-58.057-22.022-14.014-46.045-24.023-72.070-32.031-26.025-6.006-54.053-10.010-82.080-10.010h-306.299v636.622h296.289c30.029 0 58.057-6.006 84.082-12.012 24.023-6.006 44.043-16.016 62.061-28.027s32.031-30.029 42.041-50.049c10.010-18.018 14.014-44.043 14.014-74.072s-6.006-58.057-22.022-78.076c-14.014-22.022-36.035-40.039-64.063-52.051 40.039-12.012 68.066-32.031 86.084-60.059zM134.131 368.579h144.141c26.025 0 46.045 2.002 62.061 14.014s24.023 28.027 24.023 56.055c0 14.014-2.002 26.025-8.008 36.035-6.006 8.008-12.012 16.016-22.022 22.022-8.008 4.004-18.018 10.010-30.029 12.012s-24.023 4.004-36.035 4.004h-134.131zM390.381 178.393c0 32.031-10.010 54.053-28.027 68.066s-42.041 20.020-72.070 20.020h-156.152v-174.17h152.149c14.014 0 28.027 2.002 40.039 4.004 12.012 4.004 22.022 8.008 32.031 14.014s18.018 14.014 22.022 26.025c6.006 10.010 10.010 24.023 10.010 42.041zM1025.001 184.399h-330.323c0-32.031 12.012-70.068 32.031-88.086 18.018-18.018 46.045-28.027 80.078-28.027 26.025 0 48.047 8.008 66.065 22.022 18.018 12.012 28.027 22.022 34.033 42.041h110.108c-18.018-62.061-46.045-96.094-82.080-120.117s-80.078-38.037-132.129-38.037c-36.035 0-68.066 6.006-98.096 18.018-28.027 12.012-52.051 28.027-72.070 48.047-20.020 22.022-36.035 48.047-48.047 78.076-10.010 28.027-16.016 60.059-16.016 96.094 0 34.033 6.006 66.065 18.018 96.094 10.010 30.029 26.025 54.053 46.045 76.074 22.022 22.022 46.045 38.037 74.072 52.051 30.029 12.012 62.061 18.018 96.094 18.018 38.037 0 72.070-8.008 102.1-22.022 28.027-16.016 52.051-36.035 70.068-60.059 20.020-26.025 32.031-56.055 40.039-88.086s12.012-72.070 10.010-102.1zM898.878 266.479c-4.004 30.029-14.014 54.053-28.027 70.068-16.016 18.018-42.041 26.025-72.070 26.025-20.020 0-36.035-4.004-50.049-12.012-12.012-6.006-24.023-14.014-32.031-24.023s-12.012-20.020-16.016-32.031c-4.004-10.010-6.006-18.018-6.006-28.027z" />
<glyph unicode="&#xe028;" glyph-name="delicious" d="M1025.001 296.508h-512.5v-512.5h-512.5v512.5h512.5v512.5h512.5z" />
<glyph unicode="&#xe029;" glyph-name="deviantart" d="M966.944 260.473c-48.047 58.057-108.106 94.092-176.172 122.119-88.086 36.035-180.176 50.049-274.268 52.051-6.006 0-14.014 0-24.023 0 0 32.031 0 62.061 0 96.094-42.041-4.004-82.080-10.010-134.131-14.014 0-6.006 0-8.008 0-12.012 0-24.023 0-50.049 0-74.072 2.002-8.008-2.002-12.012-10.010-14.014-68.066-14.014-132.129-36.035-192.188-72.070-46.045-28.027-86.084-62.061-116.113-108.106-36.035-54.053-50.049-114.111-34.033-176.172 164.16 0 322.315 0 486.475 0 0 102.1 0 196.192 0 294.287 20.020 0 42.041 0 62.061 0 52.051-4.004 104.102-12.012 152.149-32.031 64.063-30.029 108.106-76.074 126.123-144.141 2.002-4.004 2.002-16.016 4.004-16.016-58.057 0-108.106 0-170.166 0 0 0 0 10.010 0 14.014 0 38.037 0 78.076 0 118.115 0 8.008-2.002 12.012-10.010 12.012-26.025 6.006-48.047 10.010-74.072 14.014-16.016 2.002-40.039 2.002-50.049 4.004 0-90.088 0-182.178 0-264.258 164.16 0 322.315 0 486.475 0 2.002 20.020 6.006 30.029 6.006 44.043 2.002 60.059-20.020 110.108-58.057 156.152zM358.35 162.377c-62.061 0-112.109 0-168.164 0 4.004 72.070 86.084 162.158 168.164 172.168 0-56.055 0-110.108 0-172.168z" />
<glyph unicode="&#xe02a;" glyph-name="forrst" d="M460.45-215.992h-376.368l428.418 1025.001 428.418-1025.001h-376.368v170.166l172.168 86.084-12.012 26.025-160.156-80.078v78.076l98.096 54.053-14.014 26.025-84.082-44.043v114.111h-104.102v-176.172l-86.084 60.059-16.016-24.023 102.1-72.070z" />
<glyph unicode="&#xe02b;" glyph-name="play" d="M590.577 318.53l132.129 132.129-200.196 116.113c0 0-392.383 226.221-414.405 238.233-2.002 2.002-4.004 4.004-8.008 4.004zM946.925 320.532c-18.018 10.010-172.168 100.098-202.197 118.115l-136.133-136.133 138.135-140.137c38.037 22.022 178.174 102.1 198.194 114.111 24.023 14.014 22.022 34.033 2.002 44.043zM70.068 807.007c-4.004-6.006-8.008-14.014-8.008-24.023 0-46.045 0-484.473 0-484.473s0-472.461 0-492.481c0-6.006 2.002-10.010 4.004-14.014l508.497 510.499zM590.577 284.497l-500.489-500.489c2.002 0 6.006 2.002 8.008 4.004 20.020 12.012 424.414 244.239 424.414 244.239l204.199 118.115z" />
<glyph unicode="&#xe02c;" glyph-name="zerply" d="M550.538 608.813c-16.016-2.002-32.031-6.006-46.045-8.008-46.045-6.006-92.090-10.010-138.135-4.004-20.020 2.002-40.039 6.006-58.057 16.016-26.025 12.012-34.033 26.025-32.031 56.055 2.002 22.022 6.006 46.045 18.018 66.065 12.012 22.022 26.025 42.041 40.039 62.061 10.010 14.014 20.020 16.016 34.033 8.008 22.022-14.014 48.047-22.022 74.072-26.025 52.051-10.010 104.102-12.012 156.152-12.012 70.068 0 140.137 10.010 208.203 24.023 4.004 0 6.006 0 8.008 0 12.012 0 18.018-4.004 16.016-16.016-4.004-26.025-6.006-54.053-10.010-80.078 0-6.006-4.004-14.014-8.008-18.018-148.145-170.166-296.289-340.332-442.432-510.499-12.012-14.014-14.014-20.020-12.012-38.037 10.010-2.002 18.018-2.002 28.027-2.002 44.043-6.006 84.082-24.023 122.119-46.045 32.031-20.020 62.061-38.037 94.092-56.055s62.061-34.033 96.094-40.039c42.041-10.010 82.080-12.012 122.119-2.002 18.018 6.006 36.035 14.014 50.049 24.023 2.002 2.002 4.004 2.002 8.008 6.006 2.002-18.018 4.004-34.033 4.004-50.049-2.002-42.041-10.010-80.078-32.031-116.113-22.022-34.033-50.049-56.055-90.088-62.061-28.027-2.002-52.051 4.004-78.076 10.010-56.055 18.018-106.104 46.045-154.151 80.078-24.023 16.016-48.047 36.035-72.070 54.053-48.047 34.033-100.098 58.057-158.154 64.063-26.025 4.004-54.053 6.006-82.080 6.006-18.018 2.002-36.035 0-54.053 0-12.012 0-20.020 6.006-20.020 18.018 0 34.033 0 66.065 2.002 98.096 0 10.010 4.004 20.020 10.010 26.025 130.127 154.151 260.254 308.301 390.381 462.452 2.002 2.002 4.004 4.004 6.006 6.006z" />
<glyph unicode="&#xe02d;" glyph-name="wikipedia" d="M96.094 508.716c-24.023 38.037-62.061 76.074-92.090 88.086l-4.004 2.002v36.035l2.002 2.002h262.256c0-8.008 0-22.022 0-36.035-36.035-4.004-76.074-22.022-66.065-60.059 66.065-144.141 126.123-292.285 190.186-438.428l112.109 208.203c-44.043 88.086-74.072 178.174-122.119 264.258-14.014 24.023-56.055 26.025-86.084 26.025v34.033h246.24v-34.033c-22.022-2.002-48.047-8.008-44.043-34.033l70.068-154.151c22.022 48.047 48.047 96.094 68.066 146.143 10.010 40.039-36.035 42.041-64.063 44.043v32.031h220.215v-32.031c-34.033-2.002-64.063-12.012-82.080-36.035-42.041-66.065-74.072-142.139-108.106-214.209 34.033-78.076 68.066-156.152 102.1-228.223l188.184 432.422c-14.014 28.027-42.041 38.037-70.068 44.043l-2.002 34.033h208.203v-34.033c-10.010-2.002-18.018-4.004-26.025-8.008-16.016-8.008-32.031-24.023-42.041-42.041l-258.252-594.581h-44.043l-122.119 290.283-150.147-290.283h-44.043c-88.086 182.178-150.147 372.364-242.237 552.54z" />
<glyph unicode="&#xe02e;" glyph-name="apple" d="M926.905 464.673c-72.070-24.023-120.117-124.121-120.117-198.194 0-96.094 54.053-196.192 142.139-220.215-24.023-84.082-92.090-190.186-154.151-234.229-26.025-18.018-56.055-26.025-94.092-26.025-24.023 0-52.051 4.004-90.088 20.020-30.029 14.014-58.057 20.020-76.074 20.020-16.016 0-50.049-10.010-96.094-28.027-26.025-8.008-48.047-14.014-62.061-14.014-42.041 0-78.076 18.018-116.113 48.047-118.115 108.106-184.18 266.26-184.18 432.422 0 162.158 102.1 318.311 260.254 318.311 48.047 0 82.080-10.010 114.111-26.025 30.029-18.018 56.055-24.023 84.082-24.023 22.022 0 48.047 4.004 72.070 14.014 62.061 24.023 102.1 36.035 126.123 36.035 60.059 0 108.106-18.018 148.145-54.053 16.016-16.016 32.031-38.037 46.045-64.063zM506.495 576.782c0 56.055 24.023 106.104 62.061 154.151 38.037 42.041 90.088 68.066 146.143 78.076 0-58.057-20.020-116.113-58.057-162.158-44.043-48.047-92.090-70.068-150.147-70.068z" />
<glyph unicode="&#xe02f;" glyph-name="flattr" d="M1025.001 184.399c0-66.065-8.008-132.129-32.031-196.192-42.041-108.106-120.117-170.166-232.227-194.19-34.033-8.008-68.066-10.010-102.1-10.010-192.188 0-384.375 0-576.563 0-2.002 0-6.006 0-8.008 0 0 0 0 2.002 0 2.002 36.035 36.035 72.070 72.070 108.106 108.106 100.098 100.098 200.196 200.196 298.291 298.291 2.002 2.002 2.002 4.004 4.004 4.004 6.006 6.006 10.010 10.010 18.018 6.006s10.010-10.010 10.010-18.018c0-50.049 0-102.1 0-152.149 0-4.004 0-8.008 0-10.010s4.004-2.002 4.004-2.002c44.043 0 88.086 0 130.127 2.002 16.016 2.002 34.033 6.006 48.047 12.012 48.047 16.016 74.072 52.051 82.080 100.098 6.006 26.025 8.008 52.051 8.008 80.078 2.002 90.088 2.002 182.178 2.002 274.268 0 6.006 0 10.010 6.006 14.014 74.072 76.074 148.145 150.147 224.219 224.219 2.002 2.002 2.002 6.006 4.004 8.008 2.002 0 4.004 0 4.004-2.002s0-6.006 0-8.008c0-180.176 0-360.352 0-540.528zM238.233 104.321c0 90.088 0 180.176 2.002 268.262 0 28.027 2.002 56.055 6.006 84.082 10.010 52.051 38.037 88.086 90.088 104.102 10.010 4.004 22.022 8.008 32.031 8.008 48.047 2.002 94.092 2.002 142.139 4.004 0 0 2.002-2.002 2.002-2.002 0-2.002 0-6.006 0-8.008 0-50.049 0-100.098 0-150.147 0-4.004-2.002-6.006 0-8.008 2.002-6.006 6.006-10.010 10.010-14.014s10.010 0 16.016 4.004c2.002 2.002 4.004 4.004 6.006 6.006 134.131 134.131 266.26 266.26 400.391 400.391 2.002 2.002 4.004 8.008 8.008 8.008-6.006 0-8.008 0-10.010 0-192.188 0-384.375 0-576.563 0-34.033 0-68.066-2.002-100.098-10.010-116.113-24.023-196.192-90.088-236.231-202.197-22.022-62.061-30.029-126.123-30.029-190.186 0-180.176 0-360.352 0-538.526 0-4.004 0-6.006 0-10.010 4.004 2.002 6.006 4.004 8.008 6.006 74.072 76.074 150.147 150.147 224.219 226.221 4.004 4.004 6.006 8.008 6.006 14.014z" />
<glyph unicode="&#xe030;" glyph-name="github" d="M968.946 452.661c0 72.070-24.023 132.129-68.066 178.174 8.008 16.016 30.029 84.082-6.006 176.172 0 0-56.055 18.018-182.178-68.066-54.053 14.014-110.108 22.022-168.164 22.022-56.055 0-112.109-8.008-166.162-22.022-128.125 86.084-182.178 68.066-182.178 68.066-38.037-92.090-14.014-160.156-8.008-176.172-42.041-46.045-68.066-106.104-68.066-178.174 0-256.25 156.152-312.305 304.297-330.323-20.020-16.016-38.037-46.045-44.043-88.086-38.037-18.018-134.131-46.045-192.188 56.055 0 0-36.035 62.061-102.1 68.066 0 0-66.065 0-6.006-40.039 0 0 44.043-22.022 74.072-98.096 0 0 40.039-118.115 224.219-78.076 2.002-56.055 2.002-142.139 2.002-158.154h330.323c0 22.022 0 128.125 0 216.211 0 62.061-20.020 102.1-44.043 124.121 148.145 16.016 302.295 72.070 302.295 328.321zM132.129 126.342c-2.002-2.002-8.008-4.004-12.012-2.002s-8.008 8.008-6.006 10.010c2.002 4.004 6.006 6.006 12.012 2.002 4.004-2.002 6.006-6.006 6.006-10.010zM158.154 96.313c-2.002-2.002-10.010 0-14.014 4.004s-4.004 10.010-2.002 14.014c4.004 2.002 10.010 2.002 14.014-4.004 4.004-4.004 6.006-10.010 2.002-14.014zM184.18 58.276c-4.004-2.002-10.010 0-14.014 6.006s-4.004 14.014 0 16.016c4.004 2.002 10.010 0 14.014-6.006s4.004-12.012 0-16.016zM220.215 22.24c-4.004-4.004-12.012-4.004-16.016 2.002-6.006 6.006-8.008 12.012-4.004 16.016 4.004 6.006 12.012 4.004 16.016-2.002 6.006-4.004 8.008-12.012 4.004-16.016zM270.264 0.219c-2.002-6.006-10.010-8.008-16.016-6.006-8.008 2.002-14.014 8.008-12.012 14.014s10.010 8.008 18.018 6.006c6.006-2.002 12.012-8.008 10.010-14.014zM310.303-13.795c-8.008 0-14.014 4.004-14.014 10.010s6.006 10.010 14.014 10.010c8.008 0 14.014-4.004 14.014-10.010s-6.006-10.010-14.014-10.010zM362.354-7.789c-8.008-2.002-14.014 2.002-16.016 8.008 0 4.004 6.006 10.010 14.014 12.012s14.014-2.002 16.016-8.008c0-4.004-6.006-10.010-14.014-12.012z" />
<glyph unicode="&#xe031;" glyph-name="renren" d="M512.5 102.319c0 0 0 0 0 0s0 0 0 0zM238.233 306.518c2.002 14.014 6.006 28.027 8.008 42.041 4.004 14.014 2.002 30.029 2.002 44.043v78.076c0 40.039 0 78.076 0 116.113-8.008 0-18.018-2.002-24.023-4.004-24.023-8.008-44.043-14.014-62.061-24.023-74.072-36.035-130.127-100.098-154.151-188.184-22.022-82.080 0-170.166 34.033-224.219 8.008-12.012 18.018-30.029 28.027-38.037 10.010 0 18.018 8.008 24.023 14.014 14.014 8.008 28.027 18.018 40.039 28.027 6.006 4.004 10.010 10.010 16.016 14.014 40.039 34.033 68.066 86.084 88.086 142.139zM512.5 102.319c0 0 0 0 0 0s0 0 0 0zM318.311 160.375c-6.006 12.012-10.010 24.023-16.016 36.035-2.002 6.006-4.004 12.012-6.006 18.018v0c-6.006-12.012-12.012-22.022-18.018-32.031-10.010-20.020-22.022-38.037-34.033-54.053-18.018-22.022-36.035-44.043-56.055-60.059-10.010-10.010-22.022-18.018-32.031-28.027 0 0 0-2.002 0-2.002 6.006-2.002 12.012-6.006 18.018-8.008 14.014-6.006 28.027-12.012 42.041-16.016 52.051-14.014 116.113-10.010 164.16 4.004 12.012 4.004 40.039 12.012 48.047 20.020v0c-12.012 6.006-22.022 16.016-32.031 24.023-30.029 28.027-56.055 60.059-78.076 98.096zM1014.991 370.581c-22.022 90.088-78.076 152.149-152.149 190.186-18.018 8.008-38.037 16.016-62.061 22.022-6.006 2.002-16.016 4.004-24.023 4.004 0-38.037 0-76.074-2.002-116.113v-76.074c0-16.016 0-32.031 2.002-46.045 4.004-14.014 8.008-28.027 10.010-42.041 20.020-56.055 48.047-108.106 88.086-142.139 6.006-4.004 10.010-8.008 16.016-14.014 12.012-10.010 26.025-20.020 40.039-28.027 6.006-4.004 14.014-14.014 24.023-14.014 10.010 8.008 20.020 26.025 28.027 38.037 34.033 54.053 56.055 142.139 32.031 224.219zM780.762 128.344c-12.012 16.016-24.023 34.033-34.033 54.053-6.006 10.010-12.012 20.020-18.018 32.031v0c-2.002-6.006-4.004-12.012-6.006-18.018-6.006-12.012-10.010-24.023-16.016-36.035-22.022-38.037-48.047-70.068-78.076-96.094-10.010-10.010-20.020-20.020-32.031-26.025v0c8.008-8.008 36.035-16.016 48.047-20.020 48.047-14.014 112.109-18.018 164.16-4.004 14.014 4.004 28.027 10.010 42.041 16.016 6.006 2.002 12.012 6.006 18.018 8.008 0 2.002 0 2.002 0 2.002-10.010 10.010-22.022 18.018-32.031 28.027-20.020 16.016-38.037 38.037-56.055 60.059zM676.661 302.514c4.004 12.012 6.006 26.025 8.008 40.039 4.004 12.012 2.002 30.029 2.002 46.045v86.084c0 38.037 0 74.072 0 112.109-2.002 0-2.002 0-4.004 0-12.012-2.002-20.020-2.002-38.037-8.008-22.022-6.006-44.043-18.018-62.061-28.027-20.020-10.010-34.033-26.025-50.049-38.037-6.006-4.004-14.014-12.012-20.020-20.020 0 0 0 0 0 0s0-2.002 0-2.002c8.008-10.010 16.016-20.020 22.022-30.029 16.016-22.022 30.029-48.047 38.037-78.076 20.020-68.066 12.012-154.151-14.014-208.203-10.010-18.018-18.018-34.033-30.029-48.047-4.004-8.008-10.010-14.014-16.016-22.022 0 0 0 0 0 0s0 0 0-2.002c0 0 2.002 0 2.002 0 24.023 14.014 44.043 38.037 64.063 54.053 14.014 10.010 24.023 24.023 34.033 36.035 26.025 32.031 48.047 66.065 64.063 110.108zM512.5 104.321c-6.006 8.008-12.012 14.014-16.016 22.022-12.012 14.014-22.022 30.029-30.029 48.047-26.025 54.053-36.035 140.137-14.014 210.205 8.008 28.027 22.022 54.053 36.035 76.074 8.008 10.010 16.016 20.020 24.023 30.029 0 0 0 2.002 0 2.002s0 0 0 0c-6.006 8.008-14.014 16.016-20.020 20.020-16.016 12.012-32.031 28.027-50.049 38.037s-40.039 22.022-62.061 28.027c-18.018 6.006-26.025 6.006-38.037 8.008-2.002 0-2.002 0-4.004 0 0-38.037 0-74.072 0-112.109v-86.084c0-16.016-2.002-34.033 2.002-46.045 2.002-14.014 4.004-28.027 8.008-40.039 16.016-44.043 38.037-78.076 64.063-110.108 10.010-12.012 20.020-26.025 34.033-36.035 20.020-16.016 40.039-40.039 64.063-54.053 0 0 0 0 2.002 0 0 2.002 0 2.002 0 2.002s0 0 0 0z" />
<glyph unicode="&#xe032;" glyph-name="friendfeed" d="M1025.001 614.819h-152.149c-30.029 0-62.061-40.039-62.061-94.092v-90.088h180.176v-178.174h-180.176v-450.44h-180.176v450.44h-270.264v-450.44h-180.176v450.44h-180.176v178.174h180.176v90.088c0 150.147 108.106 270.264 242.237 270.264h152.149v-176.172h-152.149c-30.029 0-62.061-40.039-62.061-94.092v-90.088h270.264v90.088c0 150.147 108.106 270.264 242.237 270.264h152.149z" />
<glyph unicode="&#xe033;" glyph-name="newsvine" d="M548.536-67.848l88.086 64.063c0 4.004 0 6.006 0 8.008 0 40.039 32.031 74.072 72.070 74.072s74.072-34.033 74.072-74.072c0-40.039-34.033-72.070-74.072-72.070-14.014 0-28.027 4.004-38.037 12.012l-122.119-88.086v-72.070h-72.070v216.211l-124.121 90.088c-12.012-6.006-24.023-10.010-36.035-10.010-40.039 0-74.072 34.033-74.072 74.072s34.033 72.070 74.072 72.070c40.039 0 72.070-32.031 72.070-72.070 0-4.004 0-8.008-2.002-12.012l90.088-66.065v216.211l-124.121 90.088c-12.012-6.006-24.023-10.010-36.035-10.010-40.039 0-74.072 34.033-74.072 74.072s34.033 72.070 74.072 72.070c40.039 0 72.070-32.031 72.070-72.070 0-4.004 0-10.010-2.002-14.014l90.088-64.063v202.197l-126.123 92.090c-10.010-6.006-22.022-10.010-34.033-10.010-40.039 0-74.072 32.031-74.072 72.070s34.033 74.072 74.072 74.072c40.039 0 72.070-34.033 72.070-74.072 0-4.004 0-8.008-2.002-12.012l90.088-66.065v162.158h72.070v-306.299l88.086 64.063c0 4.004 0 8.008 0 10.010 0 40.039 32.031 74.072 72.070 74.072s74.072-34.033 74.072-74.072c0-40.039-34.033-72.070-74.072-72.070-14.014 0-26.025 4.004-38.037 10.010l-122.119-88.086v-202.197l88.086 64.063c0 4.004 0 6.006 0 8.008 0 42.041 32.031 74.072 72.070 74.072s74.072-32.031 74.072-74.072c0-40.039-34.033-72.070-74.072-72.070-14.014 0-26.025 4.004-38.037 12.012l-122.119-90.088v-214.209z" />
<glyph unicode="&#xe034;" glyph-name="identica" d="M0 324.536c0-252.246 208.203-456.446 466.456-456.446 74.072 0 144.141 18.018 206.201 48.047l352.344-104.102-114.111 366.358c16.016 46.045 24.023 96.094 24.023 146.143 0 252.246-208.203 456.446-466.456 456.446s-468.457-204.199-468.457-456.446zM784.766 324.536c0-38.037-8.008-76.074-20.020-110.108l58.057-164.16 6.006-16.016c0 0 0 2.002 0 2.002l20.020-54.053-74.072 18.018-160.156 50.049c-44.043-22.022-94.092-34.033-148.145-34.033-174.17-2.002-316.309 138.135-316.309 308.301s142.139 308.301 318.311 310.303c174.17 0 316.309-140.137 316.309-310.303z" />
<glyph unicode="&#xe035;" glyph-name="bebo" d="M564.551-215.992h-104.102c-226.221 0-408.399 184.18-408.399 410.401v512.5c0 56.055 46.045 102.1 102.1 102.1s102.1-46.045 102.1-102.1v-512.5c0-114.111 92.090-206.201 204.199-206.201h104.102c112.109 0 204.199 82.080 204.199 180.176 0 100.098-56.055 180.176-102.1 180.176h-206.201c-56.055 0-102.1 46.045-102.1 102.1s46.045 102.1 102.1 102.1h206.201c170.166 0 306.299-172.168 306.299-384.375s-182.178-384.375-408.399-384.375z" />
<glyph unicode="&#xe036;" glyph-name="zynga" d="M764.747 805.005c0 0 70.068 6.006 126.123-30.029 20.020 2.002 36.035-8.008 46.045-26.025 10.010-20.020 30.029-66.065 14.014-94.092-4.004-4.004-16.016 18.018-16.016 18.018s-6.006-28.027-22.022-38.037c2.002-58.057-20.020-98.096-26.025-112.109-4.004-6.006-2.002-14.014 2.002-22.022 2.002-6.006 40.039-142.139 38.037-186.182-2.002-46.045-24.023-98.096-42.041-118.115 4.004-36.035-14.014-68.066-22.022-84.082-10.010-14.014-28.027-72.070-32.031-98.096-6.006-28.027-8.008-56.055-2.002-64.063 6.006-10.010 32.031-36.035 30.029-50.049-2.002-12.012-30.029-28.027-44.043-28.027-12.012 0-40.039 8.008-46.045 26.025-8.008 18.018-8.008 50.049-4.004 68.066 6.006 18.018 38.037 152.149 18.018 230.225-46.045-22.022-124.121-20.020-124.121-20.020s-14.014-70.068-30.029-110.108c-6.006-10.010-4.004-74.072-4.004-116.113 0-40.039 14.014-104.102 14.014-104.102s20.020-16.016 16.016-34.033c-2.002-18.018-26.025-28.027-46.045-28.027s-46.045 16.016-46.045 40.039c0 24.023 4.004 82.080 2.002 122.119-2.002 42.041 0 68.066-8.008 94.092-6.006 26.025-26.025 94.092-28.027 146.143-6.006 0-12.012 6.006-12.012 6.006s-32.031-38.037-54.053-58.057c4.004-14.014 10.010-40.039 10.010-46.045s6.006-10.010 16.016-14.014c10.010-4.004 40.039-20.020 38.037-36.035 0-16.016-38.037-20.020-70.068-6.006-8.008 4.004-36.035 98.096-40.039 110.108s-6.006 18.018-2.002 30.029c6.006 10.010 18.018 44.043 16.016 64.063s-38.037 52.051-64.063 52.051c-18.018 0-48.047-30.029-68.066-46.045-26.025-20.020-56.055-50.049-64.063-56.055-8.008-4.004-68.066-114.111-78.076-144.141-6.006-14.014-14.014-76.074-66.065-74.072-22.022 2.002-44.043 28.027 22.022 72.070 16.016 38.037 38.037 78.076 40.039 86.084s18.018 106.104 48.047 198.194c28.027 94.092 70.068 138.135 78.076 144.141 6.006 6.006 10.010 8.008 4.004 12.012s-74.072 62.061-62.061 186.182c2.002 14.014 8.008 10.010 14.014-22.022 4.004-34.033 30.029-112.109 88.086-136.133 6.006-2.002 48.047 30.029 264.258 46.045 0 38.037 6.006 78.076 6.006 78.076s-14.014 12.012-16.016 34.033c-8.008-10.010-12.012-14.014-22.022-12.012-8.008 2.002-8.008 46.045-6.006 78.076 2.002 30.029 38.037 44.043 52.051 46.045 18.018 10.010 38.037 8.008 38.037 8.008s32.031 34.033 126.123 18.018z" />
<glyph unicode="&#xe037;" glyph-name="steam" d="M892.872 490.698c0-84.082-68.066-150.147-150.147-150.147-84.082 0-152.149 66.065-152.149 150.147 0 82.080 68.066 150.147 152.149 150.147 82.080 0 150.147-68.066 150.147-150.147zM0 10.229l58.057-22.022c20.020-94.092 104.102-166.162 204.199-166.162 110.108 0 198.194 84.082 210.205 190.186l268.262 196.192c156.152 0 282.276 126.123 282.276 280.274 0 156.152-126.123 282.276-282.276 282.276-154.151 0-280.274-124.121-280.274-278.272l-176.172-252.246c-6.006 2.002-14.014 2.002-22.022 2.002-38.037 0-76.074-10.010-106.104-30.029l-156.152 64.063v-266.26zM740.723 678.882c104.102 0 188.184-86.084 188.184-190.186s-84.082-188.184-188.184-188.184c-104.102 0-188.184 84.082-188.184 188.184s84.082 190.186 188.184 190.186zM262.256 186.401c86.084 0 154.151-68.066 154.151-154.151s-68.066-154.151-154.151-154.151c-58.057 0-110.108 32.031-136.133 82.080 26.025-10.010 50.049-20.020 76.074-30.029 62.061-26.025 134.131 4.004 160.156 68.066 26.025 62.061-6.006 134.131-68.066 158.154l-64.063 26.025c10.010 2.002 22.022 4.004 32.031 4.004z" />
<glyph unicode="&#xe038;" glyph-name="xbox" d="M508.497 616.821v0c0 0 0 0 0 0 204.199 148.145 332.325 74.072 332.325 74.072-90.088 76.074-206.201 122.119-332.325 122.119s-242.237-46.045-332.325-122.119c0 0 126.123 76.074 332.325-74.072zM374.366 518.725c-150.147 92.090-240.235 132.129-240.235 132.129-86.084-92.090-138.135-214.209-138.135-350.342 0-120.117 42.041-230.225 112.109-318.311 0 0-70.068 188.184 266.26 536.524zM1020.997 300.512c0 136.133-52.051 258.252-138.135 350.342 0 0-88.086-40.039-240.235-132.129 336.328-348.34 266.26-536.524 266.26-536.524 70.068 88.086 112.109 198.194 112.109 318.311zM506.495 406.616c-284.278-210.205-368.36-458.448-368.36-458.448 94.092-98.096 224.219-158.154 370.362-158.154s278.272 60.059 370.362 158.154c0 0-54.053 224.219-372.364 458.448z" />
<glyph unicode="&#xe039;" glyph-name="windows" d="M-2.002-73.853l422.413-56.055v396.387h-424.414zM-4.004 316.528h424.414v412.403l-422.413-62.061zM460.45-135.914l564.551-76.074v478.467h-564.551zM460.45 734.936v-418.409h564.551v494.483z" />
<glyph unicode="&#xe03a;" glyph-name="qq" d="M964.942 216.43c-30.029 72.070-72.070 124.121-102.1 136.133 0 4.004 0 8.008 0 14.014 0 26.025-8.008 52.051-20.020 72.070 0 2.002 0 4.004 0 6.006 0 12.012-4.004 24.023-8.008 34.033-8.008 184.18-128.125 330.323-322.315 330.323s-314.307-146.143-322.315-330.323c-6.006-10.010-8.008-22.022-8.008-34.033 0-2.002 0-4.004 0-6.006-12.012-20.020-20.020-46.045-20.020-72.070 0-6.006 0-10.010 0-14.014-30.029-12.012-72.070-64.063-102.1-136.133-38.037-90.088-44.043-176.172-14.014-192.188 22.022-10.010 56.055 14.014 86.084 62.061 12.012-52.051 44.043-96.094 86.084-134.131-44.043-16.016-74.072-44.043-74.072-76.074 0-50.049 80.078-92.090 180.176-92.090 90.088 0 164.16 34.033 178.174 78.076 4.004 0 18.018 0 20.020 0 14.014-44.043 90.088-78.076 178.174-78.076 100.098 0 182.178 42.041 182.178 92.090 0 32.031-30.029 60.059-76.074 76.074 44.043 38.037 74.072 82.080 86.084 134.131 32.031-48.047 64.063-72.070 86.084-62.061 30.029 16.016 24.023 102.1-14.014 192.188zM420.411 478.686c-54.053 6.006-66.065 106.104-40.039 154.151 10.010 16.016 26.025 30.029 46.045 30.029 36.035 0 58.057-46.045 58.057-90.088s-20.020-98.096-64.063-94.092zM612.598 478.686c-6.006-2.002-18.018-4.004-26.025 0-52.051 14.014-62.061 110.108-34.033 154.151 8.008 14.014 22.022 28.027 40.039 30.029 4.004 2.002 14.014 2.002 20.020 0 60.059-24.023 58.057-162.158 0-184.18zM598.585 596.802c-16.016 8.008-30.029-4.004-34.033-16.016-2.002-10.010-6.006-26.025 8.008-28.027 6.006 6.006 4.004 28.027 16.016 26.025s4.004-28.027 22.022-24.023c6.006 16.016 0 38.037-12.012 42.041zM452.442 606.811c-28.027-4.004-28.027-72.070 2.002-74.072s32.031 78.076-2.002 74.072z" />
<glyph unicode="&#xe03b;" glyph-name="douban" d="M0 792.993h1025.001v-112.109h-1025.001zM838.819 142.358h102.1v430.42h-854.835v-430.42h90.088l76.074-244.239h-252.246v-98.096h1025.001v98.096h-258.252zM258.252 460.669h514.502v-204.199h-514.502zM622.608-101.881h-226.221l-76.074 244.239h374.366z" />
<glyph unicode="&#xe03c;" glyph-name="meetup" d="M774.757 782.983c-8.008 0-16.016-8.008-24.023-8.008-24.023 0-44.043-20.020-64.063-16.016-20.020 2.002-38.037-32.031-62.061-32.031h-6.006c-6.006 0-12.012 38.037-14.014 40.039-106.104-144.141-142.139-330.323-190.186-526.514-26.025 48.047-50.049 98.096-74.072 148.145-44.043 84.082-88.086 174.17-136.133 246.24-14.014 0-28.027 2.002-42.041 2.002-56.055 0-108.106-10.010-156.152-24.023l-2.002-132.129c-6.006-226.221-12.012-420.411 46.045-604.59 10.010-2.002 22.022-4.004 32.031-4.004 68.066 0 128.125 34.033 154.151 48.047 6.006 58.057-2.002 102.1-10.010 150.147-4.004 24.023-8.008 50.049 6.006 82.080 38.037-52.051 74.072-108.106 108.106-164.16 22.022-36.035 44.043-72.070 62.061-102.1 10.010-2.002 22.022-2.002 32.031-2.002 26.025 0 50.049 4.004 74.072 6.006 24.023 4.004 48.047 8.008 76.074 8.008l16.016-6.006c30.029 68.066 32.031 172.168 34.033 270.264 2.002 92.090 4.004 186.182 44.043 256.25 44.043-204.199 104.102-402.393 184.18-604.59 26.025 4.004 58.057 14.014 86.084 22.022 22.022 6.006 40.039 14.014 56.055 14.014 8.008 0 14.014-4.004 20.020-8.008-48.047 130.127-78.076 276.27-106.104 420.411-38.037 186.182-78.076 374.366-144.141 520.508z" />
<glyph unicode="&#xe03d;" glyph-name="playstation" d="M1022.999 124.34c-10.010 48.047-86.084 74.072-206.201 84.082-84.082 6.006-168.164-14.014-250.244-42.041l-14.014-4.004v362.354c0 30.029 64.063 28.027 64.063-6.006v-282.276c130.127-38.037 196.192 20.020 198.194 164.16 0 122.119-82.080 194.19-216.211 230.225l-212.207 54.053v-428.418l-64.063-22.022 64.063-20.020v-108.106l-152.149-52.051c-52.051-18.018-94.092 24.023-48.047 40.039l38.037 14.014-142.139 44.043c-44.043-14.014-84.082-46.045-82.080-90.088s106.104-56.055 184.18-68.066c74.072-12.012 142.139-6.006 202.197 16.016v46.045-96.094l166.162-54.053v4.004l2.002-4.004 144.141 52.051 240.235 84.082-156.152 48.047-230.225-78.076v54.053l146.143 50.049 86.084 30.029c90.088 16.016 126.123-14.014 40.039-42.041l-42.041-14.014 156.152-48.047h2.002c62.061 22.022 90.088 54.053 84.082 82.080zM82.080 152.368l142.139-44.043 162.158 58.057v48.047l-64.063 20.020-236.231-80.078c-2.002 0-2.002-2.002-4.004-2.002z" />
<glyph unicode="&#xe03e;" glyph-name="android" d="M888.868 488.696c-34.033 0-62.061-30.029-62.061-64.063v-248.242c0-34.033 28.027-62.061 62.061-62.061s62.061 28.027 62.061 62.061v248.242c0 34.033-28.027 64.063-62.061 64.063zM136.133 488.696c-34.033 0-62.061-30.029-62.061-64.063v-248.242c0-34.033 28.027-62.061 62.061-62.061s62.061 28.027 62.061 62.061v248.242c0 34.033-28.027 64.063-62.061 64.063zM236.231 486.694v-452.442c0-28.027 22.022-50.049 48.047-50.049h56.055v-136.133c0-36.035 28.027-64.063 62.061-64.063s62.061 28.027 62.061 64.063v136.133h98.096v-136.133c0-36.035 28.027-64.063 62.061-64.063s62.061 28.027 62.061 64.063v136.133h56.055c26.025 0 48.047 22.022 48.047 50.049v452.442zM644.63 720.923l50.049 74.072c4.004 4.004 2.002 10.010-2.002 12.012-4.004 4.004-8.008 2.002-12.012-2.002l-52.051-78.076c-36.035 14.014-74.072 22.022-116.113 22.022s-80.078-8.008-116.113-22.022l-52.051 78.076c-4.004 4.004-8.008 6.006-12.012 2.002-4.004-2.002-6.006-8.008-2.002-12.012l50.049-74.072c-80.078-38.037-138.135-110.108-146.143-194.19h556.543c-8.008 84.082-66.065 156.152-146.143 194.19zM396.387 602.807c-18.018 0-32.031 14.014-32.031 30.029 0 18.018 14.014 32.031 32.031 32.031 16.016 0 30.029-14.014 30.029-32.031 0-16.016-14.014-30.029-30.029-30.029zM632.618 602.807c-16.016 0-30.029 14.014-30.029 30.029 0 18.018 14.014 32.031 30.029 32.031 18.018 0 32.031-14.014 32.031-32.031 0-16.016-14.014-30.029-32.031-30.029z" />
<glyph unicode="&#xe03f;" glyph-name="snapchat" d="M518.17-125.411c-2.316 0-4.59 0.067-6.867 0.173h-0.005c-1.45-0.112-2.967-0.173-4.483-0.173-53.231 0-87.398 24.151-120.436 47.51-22.813 16.12-44.339 31.336-69.705 35.562-12.377 2.048-24.697 3.090-36.603 3.090-21.448 0-38.369-3.31-50.722-5.726-7.506-1.469-13.983-2.732-18.904-2.732-5.142 0-10.714 1.112-13.135 9.385-2.104 7.169-3.627 14.11-5.091 20.826-3.774 17.284-6.452 27.913-13.695 29.025-84.427 13.041-108.591 30.822-113.979 43.44-0.763 1.805-1.197 3.613-1.3 5.402-0.273 4.847 3.16 9.127 7.95 9.91 129.785 21.372 187.984 154.018 190.399 159.652 0.065 0.155 0.137 0.305 0.208 0.461 7.945 16.097 9.499 30.070 4.64 41.524-8.906 20.99-37.953 30.216-57.183 36.315-4.705 1.488-9.165 2.897-12.683 4.285-38.369 15.169-41.562 30.739-40.054 38.675 2.571 13.522 20.642 22.945 35.255 22.945 4.008 0 7.535-0.711 10.502-2.095 17.261-8.085 32.815-12.184 46.237-12.184 18.546 0 26.641 7.795 27.631 8.816-0.471 8.784-1.056 17.959-1.653 27.424-3.866 61.359-8.654 137.602 10.758 181.122 58.181 130.453 181.559 140.587 217.987 140.587 0.933 0 15.97 0.159 15.97 0.159l2.157 0.009c36.513 0 160.16-10.154 218.374-140.677 19.418-43.544 14.614-119.851 10.741-181.164l-0.161-2.665c-0.537-8.539-1.054-16.836-1.488-24.78 0.928-0.947 8.373-8.114 25.187-8.76h0.018c12.777 0.489 27.462 4.563 43.577 12.112 4.725 2.204 9.969 2.671 13.54 2.671 5.453 0 10.984-1.056 15.574-2.972l0.278-0.114c13.036-4.62 21.575-13.757 21.757-23.303 0.17-8.99-6.694-22.506-40.359-35.805-3.489-1.37-7.95-2.788-12.672-4.285-19.248-6.107-48.286-15.325-57.187-36.309-4.866-11.448-3.307-25.413 4.634-41.519 0.070-0.155 0.15-0.305 0.211-0.471 2.415-5.628 60.564-138.237 190.404-159.633 4.795-0.79 8.217-5.066 7.954-9.919-0.108-1.819-0.552-3.651-1.327-5.431-5.355-12.527-29.501-30.286-113.955-43.335-6.9-1.059-9.573-10.051-13.69-28.902-1.497-6.862-3.014-13.601-5.1-20.689-1.799-6.151-5.631-9.029-12.079-9.029h-1.050c-4.474 0-10.837 0.801-18.898 2.383-14.298 2.797-30.329 5.373-50.725 5.373-11.911 0-24.235-1.041-36.621-3.090-25.337-4.225-46.851-19.412-69.62-35.509-33.102-23.412-67.265-47.562-120.512-47.562z" />
<glyph unicode="&#xe040;" glyph-name="twitter" d="M920.899 504.712c0-8.008 0-18.018 0-26.025 0-278.272-212.207-598.585-598.585-598.585-118.115 0-230.225 34.033-322.315 94.092 16.016-2.002 34.033-2.002 50.049-2.002 98.096 0 190.186 32.031 262.256 90.088-92.090 0-170.166 62.061-198.194 146.143 14.014-4.004 26.025-4.004 40.039-4.004 20.020 0 38.037 2.002 56.055 6.006-96.094 20.020-168.164 106.104-168.164 206.201 0 2.002 0 2.002 0 4.004 28.027-16.016 60.059-26.025 94.092-26.025-56.055 36.035-94.092 102.1-94.092 174.17 0 38.037 12.012 74.072 30.029 106.104 102.1-128.125 258.252-212.207 432.422-220.215-4.004 16.016-6.006 32.031-6.006 48.047 0 116.113 94.092 210.205 210.205 210.205 62.061 0 116.113-26.025 154.151-66.065 48.047 10.010 94.092 26.025 134.131 50.049-16.016-48.047-50.049-90.088-92.090-116.113 42.041 6.006 82.080 16.016 120.117 34.033-28.027-42.041-64.063-80.078-104.102-110.108z" />
<glyph unicode="&#xe041;" glyph-name="facebook" d="M592.579-215.992v468.457h156.152l24.023 182.178h-180.176v116.113c0 52.051 14.014 88.086 90.088 88.086h96.094v162.158c-16.016 4.004-74.072 8.008-140.137 8.008-140.137 0-234.229-84.082-234.229-240.235v-134.131h-158.154v-182.178h158.154v-468.457z" />
<glyph unicode="&#xe042;" glyph-name="googleplus" d="M328.321 358.569c0-44.043 0-86.084 0-128.125 60.059 0 120.117 0 180.176 0-8.008-42.041-32.031-78.076-66.065-102.1-22.022-14.014-48.047-24.023-72.070-28.027-26.025-4.004-54.053-6.006-80.078 0-26.025 4.004-50.049 16.016-72.070 32.031-36.035 24.023-62.061 60.059-76.074 100.098-14.014 42.041-14.014 86.084 0 128.125 10.010 28.027 26.025 56.055 48.047 78.076 26.025 26.025 62.061 46.045 98.096 54.053 32.031 6.006 66.065 6.006 96.094-4.004 28.027-8.008 52.051-22.022 72.070-42.041 20.020 20.020 40.039 40.039 60.059 60.059 10.010 12.012 22.022 22.022 32.031 32.031-30.029 30.029-66.065 52.051-106.104 66.065-70.068 26.025-150.147 26.025-222.217 2.002-80.078-28.027-148.145-88.086-186.182-162.158-12.012-26.025-22.022-54.053-28.027-84.082-14.014-70.068-4.004-146.143 28.027-212.207 22.022-42.041 52.051-80.078 90.088-108.106 36.035-28.027 76.074-50.049 120.117-62.061 54.053-14.014 112.109-14.014 168.164 0 50.049 10.010 96.094 34.033 134.131 68.066 40.039 38.037 68.066 86.084 82.080 138.135 18.018 56.055 20.020 116.113 10.010 174.17-104.102 0-206.201 0-310.303 0zM1025.001 350.561h-112.109v112.109h-82.080v-112.109h-112.109v-82.080h112.109v-112.109h82.080v112.109h112.109z" />
<glyph unicode="&#xe043;" glyph-name="pinterest" d="M340.332 416.626c0 44.043 10.010 80.078 34.033 110.108 22.022 30.029 50.049 46.045 82.080 46.045 26.025 0 46.045-8.008 60.059-26.025s22.022-40.039 22.022-66.065c0-16.016-4.004-36.035-10.010-58.057-6.006-24.023-12.012-52.051-22.022-82.080-10.010-32.031-18.018-56.055-22.022-74.072-8.008-32.031-2.002-60.059 18.018-84.082 20.020-22.022 46.045-34.033 78.076-34.033 56.055 0 102.1 32.031 138.135 94.092 36.035 64.063 54.053 140.137 54.053 230.225 0 68.066-22.022 124.121-66.065 168.164-44.043 42.041-106.104 64.063-186.182 64.063-90.088 0-162.158-28.027-216.211-86.084-56.055-56.055-84.082-124.121-84.082-204.199 0-48.047 14.014-88.086 40.039-120.117 10.010-10.010 12.012-22.022 10.010-34.033-4.004-10.010-8.008-26.025-12.012-48.047-2.002-8.008-6.006-14.014-12.012-16.016s-12.012-2.002-18.018 0c-42.041 18.018-72.070 46.045-94.092 88.086s-32.031 90.088-32.031 144.141c0 36.035 6.006 70.068 18.018 106.104s28.027 70.068 52.051 102.1c24.023 34.033 54.053 62.061 86.084 88.086 34.033 26.025 74.072 46.045 124.121 62.061 48.047 14.014 100.098 22.022 154.151 22.022 58.057 0 110.108-10.010 158.154-30.029 48.047-18.018 90.088-44.043 122.119-76.074 34.033-34.033 58.057-70.068 78.076-112.109 18.018-42.041 28.027-86.084 28.027-130.127 0-120.117-30.029-220.215-92.090-298.291-62.061-80.078-140.137-118.115-236.231-118.115-32.031 0-62.061 6.006-90.088 22.022-28.027 14.014-48.047 32.031-60.059 54.053-22.022-94.092-36.035-150.147-42.041-168.164-12.012-46.045-40.039-102.1-86.084-168.164h-42.041c-8.008 82.080-6.006 150.147 6.006 204.199l78.076 330.323c-12.012 26.025-18.018 58.057-18.018 98.096z" />
<glyph unicode="&#xe044;" glyph-name="foursquare" d="M788.77 809.009c0 0-470.459 0-546.534 0-74.072 0-96.094-56.055-96.094-92.090s0-868.848 0-868.848c0-40.039 20.020-56.055 32.031-60.059 14.014-6.006 46.045-10.010 66.065 14.014 0 0 258.252 300.293 262.256 304.297 8.008 6.006 8.008 6.006 14.014 6.006 14.014 0 114.111 0 168.164 0 70.068 0 80.078 50.049 88.086 80.078 6.006 24.023 74.072 374.366 98.096 486.475 16.016 84.082-4.004 130.127-86.084 130.127zM776.759 192.407c6.006 24.023 74.072 374.366 98.096 486.475zM756.739 660.864l-22.022-120.117c-4.004-12.012-20.020-26.025-34.033-26.025-16.016 0-214.209 0-214.209 0-24.023 0-40.039-16.016-40.039-40.039v-26.025c0-24.023 16.016-40.039 40.039-40.039 0 0 164.16 0 182.178 0 16.016 0 32.031-20.020 30.029-38.037-4.004-18.018-22.022-108.106-24.023-118.115-2.002-8.008-12.012-26.025-34.033-26.025-16.016 0-146.143 0-146.143 0-28.027 0-36.035-4.004-54.053-26.025s-178.174-216.211-178.174-216.211c-2.002-2.002-4.004-2.002-4.004 0v678.663c0 16.016 14.014 34.033 34.033 34.033 0 0 420.411 0 438.428 0 16.016 0 30.029-16.016 26.025-36.035z" />
<glyph unicode="&#xe045;" glyph-name="yahoo" d="M994.972 484.692c-18.018 0-92.090-18.018-118.115-22.022-26.025-8.008-270.264-196.192-286.28-242.237-4.004-16.016-6.006-42.041-6.006-64.063l-2.002-38.037c0-26.025 8.008-70.068 12.012-92.090 16.016-4.004 132.129-2.002 154.151-4.004l-4.004-48.047c-20.020 2.002-168.164 0-252.246 0-42.041 0-180.176-4.004-222.217-2.002l8.008 44.043c24.023 2.002 118.115-4.004 140.137 18.018 10.010 12.012 8.008 24.023 8.008 88.086v30.029c0 14.014 0 42.041-4.004 66.065-10.010 26.025-224.219 294.287-280.274 338.33-16.016 4.004-116.113 16.016-140.137 20.020l-2.002 42.041c12.012 6.006 124.121-2.002 232.227 2.002 72.070 2.002 234.229 0 254.248-2.002l-4.004-36.035c-22.022-6.006-126.123-8.008-152.149-16.016 70.068-102.1 180.176-236.231 216.211-286.28 18.018 28.027 190.186 146.143 196.192 186.182-26.025 6.006-116.113 20.020-130.127 20.020l-8.008 46.045c24.023 4.004 152.149 0 216.211 0 54.053 0 170.166 0 204.199-4.004z" />
<glyph unicode="&#xe046;" glyph-name="skype" d="M988.966 188.403c8.008 32.031 10.010 68.066 10.010 102.1 0 266.26-214.209 482.471-480.469 482.471-28.027 0-56.055-2.002-82.080-6.006-44.043 26.025-94.092 42.041-150.147 42.041-154.151 0-278.272-126.123-278.272-280.274 0-50.049 14.014-100.098 38.037-140.137-6.006-32.031-10.010-64.063-10.010-98.096 0-266.26 216.211-480.469 482.471-480.469 30.029 0 58.057 2.002 88.086 8.008 38.037-22.022 84.082-34.033 132.129-34.033 154.151 0 278.272 126.123 278.272 280.274 0 44.043-10.010 86.084-28.027 124.121zM760.743 62.28c-22.022-32.031-54.053-56.055-98.096-74.072-42.041-18.018-92.090-26.025-150.147-26.025-68.066 0-126.123 12.012-172.168 36.035-32.031 16.016-60.059 40.039-80.078 70.068s-30.029 58.057-30.029 86.084c0 18.018 6.006 34.033 20.020 46.045s30.029 18.018 50.049 18.018c16.016 0 30.029-4.004 42.041-14.014s22.022-24.023 28.027-42.041c10.010-18.018 18.018-36.035 28.027-48.047s24.023-24.023 40.039-32.031c18.018-8.008 42.041-12.012 70.068-12.012 40.039 0 74.072 8.008 98.096 26.025 24.023 16.016 36.035 36.035 36.035 60.059 0 18.018-6.006 34.033-20.020 46.045-12.012 12.012-30.029 20.020-50.049 28.027-22.022 6.006-52.051 14.014-88.086 22.022-50.049 10.010-94.092 22.022-128.125 38.037-34.033 14.014-62.061 34.033-82.080 60.059s-32.031 58.057-32.031 96.094c0 36.035 12.012 70.068 34.033 98.096s52.051 50.049 94.092 64.063c40.039 16.016 86.084 22.022 140.137 22.022 44.043 0 82.080-4.004 112.109-14.014 32.031-10.010 60.059-24.023 80.078-40.039 22.022-16.016 38.037-34.033 48.047-52.051s14.014-38.037 14.014-56.055c0-16.016-6.006-32.031-20.020-46.045-12.012-14.014-30.029-20.020-50.049-20.020-16.016 0-30.029 4.004-40.039 12.012s-18.018 22.022-30.029 38.037c-12.012 24.023-26.025 42.041-42.041 54.053s-44.043 18.018-80.078 18.018c-36.035 0-64.063-6.006-84.082-20.020-20.020-12.012-30.029-28.027-30.029-46.045 0-10.010 2.002-20.020 10.010-28.027 6.006-8.008 16.016-16.016 28.027-22.022s26.025-12.012 38.037-14.014c14.014-4.004 36.035-10.010 68.066-18.018 38.037-8.008 74.072-16.016 106.104-26.025 32.031-12.012 60.059-24.023 82.080-38.037 24.023-16.016 42.041-34.033 54.053-58.057 14.014-22.022 20.020-52.051 20.020-84.082 0-40.039-12.012-76.074-34.033-108.106z" />
<glyph unicode="&#xe047;" glyph-name="yelp" d="M210.205 706.909c10.010 16.016 30.029 24.023 30.029 24.023l202.197 74.072c8.008 2.002 18.018 12.012 48.047-8.008 18.018-10.010 22.022-54.053 22.022-54.053l2.002-346.338c0 0-4.004-40.039-32.031-48.047-26.025-6.006-48.047 16.016-48.047 16.016l-208.203 284.278c0 0-30.029 36.035-16.016 58.057zM104.102 116.332c-8.008 14.014-6.006 44.043-6.006 44.043l14.014 174.17c0 10.010 12.012 24.023 24.023 30.029 14.014 10.010 48.047-4.004 48.047-4.004l216.211-110.108c0 0 32.031-16.016 32.031-42.041 0-36.035-18.018-36.035-28.027-42.041l-254.248-56.055c0 0-36.035-14.014-46.045 6.006zM494.483-213.99c-16.016-4.004-36.035 0-36.035 0l-170.166 54.053c-12.012 6.006-22.022 14.014-26.025 30.029-6.006 18.018 16.016 46.045 16.016 46.045l170.166 186.182c0 0 26.025 24.023 46.045 12.012 20.020-10.010 22.022-34.033 22.022-34.033l-4.004-252.246c0 0 4.004-36.035-18.018-42.041zM598.585 304.516l136.133 216.211c0 0 14.014 28.027 38.037 26.025 20.020 0 30.029-18.018 30.029-18.018l116.113-136.133c0 0 10.010-22.022 6.006-40.039s-38.037-32.031-38.037-32.031l-242.237-70.068c0 0-36.035-8.008-48.047 14.014-10.010 20.020 2.002 40.039 2.002 40.039zM916.895 22.24l-102.1-148.145c0 0-20.020-14.014-38.037-14.014s-40.039 28.027-40.039 28.027l-130.127 218.213c0 0-14.014 32.031 2.002 48.047s40.039 10.010 40.039 10.010l244.239-78.076c0 0 34.033-6.006 34.033-30.029 0-16.016-10.010-34.033-10.010-34.033z" />
<glyph unicode="&#xe048;" glyph-name="feedburner" d="M642.628 494.702c34.033-180.176-76.074-290.283-212.207-252.246 200.196 328.321-92.090 330.323-2.002 566.553-138.135-98.096-274.268-370.362-274.268-568.555 0-278.272 146.143-454.444 342.334-456.446 190.186-2.002 374.366 180.176 374.366 358.35 0 204.199-110.108 284.278-228.223 352.344zM496.485-145.924c-194.19-4.004-354.346 204.199-174.17 498.487-38.037-170.166 64.063-298.291 162.158-298.291 110.108-2.002 174.17 102.1 206.201 236.231 176.172-134.131 96.094-430.42-194.19-436.426z" />
<glyph unicode="&#xe049;" glyph-name="linkedin" d="M766.749 284.497c-14.014 16.016-38.037 24.023-72.070 24.023-44.043 0-74.072-14.014-92.090-38.037-18.018-26.025-26.025-62.061-26.025-108.106v-350.342c0-6.006-2.002-12.012-8.008-18.018-4.004-4.004-12.012-8.008-18.018-8.008h-184.18c-6.006 0-12.012 4.004-18.018 8.008-4.004 6.006-8.008 12.012-8.008 18.018v646.631c0 6.006 4.004 12.012 8.008 18.018 6.006 4.004 12.012 8.008 18.018 8.008h178.174c6.006 0 12.012-2.002 16.016-4.004s6.006-8.008 8.008-14.014c0-6.006 2.002-12.012 2.002-14.014s0-8.008 0-16.016c46.045 44.043 108.106 64.063 182.178 64.063 86.084 0 152.149-20.020 200.196-62.061 48.047-44.043 72.070-106.104 72.070-190.186v-436.426c0-6.006-2.002-12.012-8.008-18.018-4.004-4.004-12.012-8.008-18.018-8.008h-188.184c-6.006 0-12.012 4.004-18.018 8.008-4.004 6.006-8.008 12.012-8.008 18.018v394.385c0 34.033-6.006 60.059-18.018 78.076zM212.207 594.8c-24.023-24.023-54.053-36.035-88.086-36.035s-64.063 12.012-88.086 36.035c-24.023 24.023-36.035 52.051-36.035 88.086 0 34.033 12.012 62.061 36.035 86.084s54.053 38.037 88.086 38.037c34.033 0 64.063-14.014 88.086-38.037s36.035-52.051 36.035-86.084c0-36.035-12.012-64.063-36.035-88.086zM242.237 458.667v-646.631c0-6.006-4.004-12.012-8.008-18.018-6.006-4.004-12.012-8.008-18.018-8.008h-184.18c-6.006 0-12.012 4.004-18.018 8.008-4.004 6.006-8.008 12.012-8.008 18.018v646.631c0 6.006 4.004 12.012 8.008 18.018 6.006 4.004 12.012 8.008 18.018 8.008h184.18c6.006 0 12.012-4.004 18.018-8.008 4.004-6.006 8.008-12.012 8.008-18.018z" />
<glyph unicode="&#xe04a;" glyph-name="viadeo" d="M198.194 8.227c24.023-44.043 58.057-78.076 98.096-102.1 28.027-16.016 58.057-26.025 88.086-32.031 266.26 104.102 234.229 606.592 232.227 632.618-10.010 30.029-56.055 158.154-142.139 302.295 0 0 120.117-80.078 142.139-300.293 0 0 0-2.002 0-2.002 2.002-4.004 2.002-6.006 2.002-6.006 156.152-416.407-182.178-630.616-184.18-630.616 50.049 0 94.092 12.012 134.131 36.035 42.041 24.023 74.072 58.057 100.098 102.1 24.023 44.043 36.035 90.088 36.035 142.139 0 40.039-8.008 78.076-22.022 114.111 24.023 4.004 54.053 14.014 84.082 34.033 18.018-46.045 28.027-94.092 28.027-146.143 0-98.096-34.033-184.18-102.1-258.252-66.065-74.072-154.151-110.108-258.252-110.108-108.106 0-194.19 36.035-262.256 110.108-66.065 74.072-100.098 160.156-100.098 258.252 0 96.094 32.031 182.178 96.094 252.246 70.068 80.078 158.154 118.115 266.26 118.115 44.043 0 86.084-6.006 124.121-20.020-12.012-24.023-24.023-54.053-26.025-86.084-32.031 12.012-64.063 18.018-100.098 18.018-74.072 0-136.133-28.027-190.186-82.080-54.053-56.055-80.078-124.121-80.078-202.197 0-52.051 12.012-98.096 36.035-142.139zM674.659 420.63c0 0 206.201 112.109 214.209 208.203 0 0-64.063-142.139-238.233-182.178 0 0-62.061 98.096 18.018 178.174 0 0 28.027 32.031 108.106 52.051 0 0 80.078 16.016 124.121 108.106 0 0 90.088-124.121 34.033-290.283 0 0-28.027-74.072-84.082-108.106-44.043-26.025-108.106-34.033-176.172 34.033zM434.424-129.908c0 0-2.002 0-2.002 0s0 0 0 0c2.002 0 2.002 0 2.002 0z" />
<glyph unicode="&#xe04b;" glyph-name="xing" d="M246.24 90.307h-148.145c-8.008 0-14.014 4.004-18.018 10.010s-4.004 16.016 0 24.023l156.152 276.27c0 0 0 0 0 2.002l-100.098 172.168c-4.004 8.008-4.004 16.016 0 22.022s10.010 10.010 20.020 10.010h148.145c22.022 0 34.033-14.014 40.039-28.027 0 0 102.1-176.172 102.1-176.172-6.006-12.012-160.156-282.276-160.156-282.276-8.008-14.014-18.018-30.029-40.039-30.029zM944.923 776.978l-326.319-578.565c0 0 0-2.002 0-2.002l208.203-380.371c4.004-8.008 4.004-16.016 0-22.022s-10.010-10.010-20.020-10.010h-148.145c-22.022 0-32.031 16.016-40.039 28.027 0 0-210.205 384.375-210.205 386.377 10.010 18.018 328.321 582.569 328.321 582.569 8.008 14.014 18.018 28.027 40.039 28.027h150.147c8.008 0 16.016-4.004 18.018-10.010 4.004-6.006 4.004-14.014 0-22.022z" />
<glyph unicode="&#xe04c;" glyph-name="myspace" d="M846.827 250.463c98.096 0 178.174-78.076 178.174-178.174 0-32.031 0-90.088 0-90.088h-358.35c0 0 0 58.057 0 90.088 0 100.098 80.078 178.174 180.176 178.174zM682.667 446.655c0 90.088 72.070 164.16 164.16 164.16 90.088 0 164.16-74.072 164.16-164.16 0-92.090-74.072-164.16-164.16-164.16-92.090 0-164.16 72.070-164.16 164.16zM476.465 222.436c88.086 0 160.156-72.070 160.156-160.156 0-28.027 0-80.078 0-80.078h-318.311c0 0 0 52.051 0 80.078 0 88.086 70.068 160.156 158.154 160.156zM330.323 400.61c0 82.080 66.065 148.145 146.143 148.145 82.080 0 148.145-66.065 148.145-148.145 0-80.078-66.065-146.143-148.145-146.143s-146.143 66.065-146.143 146.143zM142.139 198.413c80.078 0 144.141-64.063 144.141-144.141 0-26.025 0-72.070 0-72.070h-286.28c0 0 0 46.045 0 72.070 0 80.078 64.063 144.141 142.139 144.141zM10.010 358.569c0 74.072 60.059 132.129 132.129 132.129 74.072 0 132.129-58.057 132.129-132.129 0-72.070-58.057-132.129-132.129-132.129-72.070 0-132.129 60.059-132.129 132.129z" />
<glyph unicode="&#xe04d;" glyph-name="soundcloud" d="M20.020 132.348h-20.020v124.121h20.020zM72.070 92.309h-20.020v194.19h20.020zM112.109 80.297h-20.020v226.221h20.020zM154.151 70.287h-20.020v226.221h20.020zM204.199 70.287h-20.020v298.291h20.020zM246.24 70.287h-20.020v338.33h20.020zM296.289 70.287h-20.020v360.352h20.020zM338.33 70.287h-20.020v370.362h20.020zM390.381 70.287h-22.022v360.352h22.022zM430.42 70.287h-20.020v348.34h20.020zM472.461 70.287h-22.022v390.381h22.022zM522.51 70.287h-20.020v420.411h20.020zM898.878 74.291c-2.002 0-350.342 0-350.342 0-8.008 0-16.016 6.006-16.016 14.014v400.391c0 8.008 4.004 12.012 14.014 16.016 24.023 10.010 52.051 14.014 80.078 14.014 116.113 0 212.207-88.086 222.217-202.197 16.016 6.006 32.031 10.010 50.049 10.010 70.068 0 126.123-56.055 126.123-126.123s-56.055-126.123-126.123-126.123z" />
<glyph unicode="&#xe04e;" glyph-name="spotify" d="M826.807-21.803c-12.012-20.020-40.039-28.027-60.059-14.014-170.166 102.1-382.373 126.123-632.618 68.066-24.023-4.004-48.047 10.010-54.053 34.033s10.010 48.047 34.033 54.053c274.268 62.061 508.497 36.035 698.682-80.078 22.022-12.012 28.027-40.039 14.014-62.061zM914.893 174.389c-16.016-26.025-50.049-34.033-76.074-18.018-194.19 118.115-488.477 152.149-718.702 84.082-28.027-10.010-60.059 8.008-70.068 36.035-8.008 30.029 8.008 62.061 38.037 70.068 262.256 80.078 586.573 42.041 808.79-94.092 26.025-18.018 36.035-52.051 18.018-78.076zM1014.991 402.612c-18.018-32.031-60.059-42.041-92.090-24.023-232.227 138.135-614.6 150.147-836.817 84.082-34.033-12.012-72.070 8.008-84.082 44.043-10.010 36.035 10.010 74.072 46.045 84.082 254.248 78.076 676.661 62.061 944.923-96.094 32.031-20.020 42.041-60.059 22.022-92.090z" />
<glyph unicode="&#xe04f;" glyph-name="grooveshark" d="M512.5 809.009c-282.276 0-512.5-230.225-512.5-512.5s230.225-512.5 512.5-512.5c282.276 0 512.5 230.225 512.5 512.5s-230.225 512.5-512.5 512.5zM812.794 194.409c-38.037 16.016-70.068 48.047-94.092 82.080-26.025 38.037-54.053 76.074-84.082 112.109-30.029 32.031-60.059 64.063-94.092 94.092-32.031 28.027-68.066 56.055-108.106 76.074-28.027 12.012-54.053 22.022-82.080 30.029-4.004 0-12.012 4.004-16.016 0 0-2.002 0-6.006 0-10.010 2.002-6.006 2.002-10.010 2.002-16.016 10.010-72.070 12.012-146.143-10.010-214.209-12.012-36.035-32.031-70.068-62.061-96.094-22.022-22.022-56.055-44.043-90.088-42.041-6.006 0-12.012 0-18.018 2.002-36.035 12.012-38.037 52.051-38.037 84.082-2.002 34.033 2.002 68.066 12.012 102.1 2.002 10.010 6.006 20.020 8.008 30.029 40.039 114.111 130.127 206.201 244.239 246.24 44.043 16.016 88.086 24.023 134.131 24.023 134.131 0 260.254-68.066 334.326-180.176 18.018-28.027 32.031-58.057 44.043-88.086v0c2.002-12.012 6.006-22.022 8.008-32.031 10.010-34.033 14.014-68.066 14.014-102.1-2.002-64.063-22.022-136.133-104.102-102.1z" />
<glyph unicode="&#xe050;" glyph-name="lastfm" d="M780.762 12.231c-202.197 0-274.268 92.090-310.303 204.199l-38.037 118.115c-28.027 86.084-62.061 152.149-164.16 152.149-72.070 0-144.141-52.051-144.141-196.192 0-112.109 56.055-182.178 138.135-182.178 92.090 0 152.149 68.066 152.149 68.066l38.037-102.1c0 0-64.063-62.061-196.192-62.061-164.16 0-256.25 96.094-256.25 274.268 0 186.182 92.090 294.287 264.258 294.287 156.152 0 234.229-56.055 284.278-208.203l38.037-118.115c28.027-86.084 78.076-148.145 196.192-148.145 80.078 0 122.119 18.018 122.119 62.061 0 34.033-20.020 58.057-80.078 72.070l-80.078 20.020c-96.094 22.022-136.133 72.070-136.133 152.149 0 128.125 104.102 168.164 210.205 168.164 120.117 0 192.188-42.041 202.197-148.145l-118.115-14.014c-4.004 50.049-36.035 70.068-92.090 70.068-52.051 0-82.080-22.022-82.080-62.061 0-36.035 14.014-56.055 66.065-68.066l76.074-16.016c100.098-24.023 154.151-74.072 154.151-168.164 0-118.115-98.096-162.158-244.239-162.158z" />
<glyph unicode="&#xe051;" glyph-name="youtube" d="M1014.991 500.708c0 0-10.010 72.070-40.039 102.1-40.039 42.041-84.082 42.041-104.102 44.043-142.139 10.010-358.35 10.010-358.35 10.010v0c0 0-216.211 0-358.35-10.010-20.020-2.002-64.063-2.002-104.102-44.043-30.029-30.029-40.039-102.1-40.039-102.1s-10.010-82.080-10.010-164.16v-78.076c0-84.082 10.010-166.162 10.010-166.162s10.010-70.068 40.039-102.1c40.039-40.039 92.090-40.039 114.111-44.043 82.080-8.008 348.34-10.010 348.34-10.010s216.211 0 358.35 10.010c20.020 2.002 64.063 4.004 104.102 44.043 30.029 32.031 40.039 102.1 40.039 102.1s10.010 82.080 10.010 166.162v78.076c0 82.080-10.010 164.16-10.010 164.16zM650.635 288.5v0l-242.237-126.123v288.282l276.27-144.141z" />
</font>
</defs>
</svg>
